<?xml version="1.0" standalone="no"?>
<!DOCTYPE svg PUBLIC "-//W3C//DTD SVG 1.1//EN" "http://www.w3.org/Graphics/SVG/1.1/DTD/svg11.dtd" >
<svg xmlns="http://www.w3.org/2000/svg" xmlns:xlink="http://www.w3.org/1999/xlink" version="1.1">
<metadata>
Created by FontForge 20170731 at Tue Mar 17 18:21:00 2009
 By Aleksey,,,
Copyright (c) 2004-9 by Kris Sowersby. All rights reserved.
</metadata>
<defs>
<font id="National-Bold" horiz-adv-x="557" >
  <font-face 
    font-family="National Bold"
    font-weight="800"
    font-stretch="normal"
    units-per-em="1000"
    panose-1="2 0 5 3 0 0 0 2 0 4"
    ascent="800"
    descent="-200"
    x-height="462"
    cap-height="589"
    bbox="-117 -257 1216 1014"
    underline-thickness="57"
    underline-position="-140"
    unicode-range="U+0020-F778"
  />
<missing-glyph horiz-adv-x="755" 
d="M83 0v589h589v-589h-589zM377 264l-221 -221h443zM156 546l221 -222l222 222h-443zM407 294l222 -221v443zM347 294l-221 222v-443z" />
    <glyph glyph-name="f_b" unicode="fb" horiz-adv-x="848" 
d="M448 0h-94v552q-35 22 -71 22q-71 0 -71 -74v-38h91v-103h-91v-359h-133v359h-68v103h68v33q0 94 53.5 137.5t133.5 43.5q54 0 103 -20l119 12v-292q35 97 149 97q85 0 131.5 -60.5t46.5 -170.5q0 -116 -52.5 -185t-144.5 -69q-56 0 -91 22t-46 57zM487 259v-70
q0 -54 27 -79.5t62 -25.5q45 0 75 38t30 108q0 136 -96 136q-40 0 -69 -29t-29 -78z" />
    <glyph glyph-name="f_f_b" unicode="ffb" horiz-adv-x="1124" 
d="M762 259v-70q0 -54 27 -79.5t62 -25.5q45 0 75 38t30 108q0 136 -96 136q-39 0 -68.5 -29t-29.5 -78zM763 668v-292q35 97 150 97q85 0 131.5 -60.5t46.5 -170.5q0 -116 -52.5 -185t-144.5 -69q-57 0 -91.5 22t-45.5 57l-34 -67h-93v552q-35 22 -71 22q-71 0 -71 -74v-38
h90v-103h-90v-359h-134v359h-142v-359h-133v359h-68v103h68v32q0 90 49.5 131t119.5 41q53 0 94 -18l-20 -112q-26 18 -54 18q-56 0 -56 -63v-29h142v33q0 93 53.5 137t133.5 44q54 0 103 -20z" />
    <glyph glyph-name="f_f_h" unicode="ffh" horiz-adv-x="1101" 
d="M763 668v-294q35 99 145 99q58 0 96.5 -36.5t38.5 -109.5v-327h-133v277q0 41 -14 62.5t-49 21.5q-36 0 -60 -24.5t-24 -81.5v-255h-133v552q-35 22 -71 22q-71 0 -71 -74v-38h90v-103h-90v-359h-134v359h-142v-359h-133v359h-68v103h68v32q0 90 49.5 131t119.5 41
q53 0 94 -18l-20 -112q-26 18 -54 18q-56 0 -56 -63v-29h142v33q0 93 53.5 137t133.5 44q54 0 103 -20z" />
    <glyph glyph-name="f_f_j" unicode="ffj" horiz-adv-x="826" 
d="M488 359v-359h-134v359h-142v-359h-133v359h-68v103h68v32q0 90 49.5 131t119.5 41q53 0 94 -18l-20 -112q-26 18 -54 18q-56 0 -56 -63v-29h142v30q0 51 18 88t49 57t65 29.5t73 9.5q80 0 142 -34l-46 -108q-39 29 -88 29q-79 0 -79 -75v-26h275v-457q0 -111 -71 -163.5
t-192 -43.5v113q68 -10 99 14t31 101v333h-142z" />
    <glyph glyph-name="f_f_k" unicode="ffk" horiz-adv-x="1086" 
d="M763 668v-374h26l118 168h155l-161 -215l176 -247h-156l-130 190h-28v-190h-133v552q-35 22 -71 22q-71 0 -71 -74v-38h90v-103h-90v-359h-134v359h-142v-359h-133v359h-68v103h68v32q0 90 49.5 131t119.5 41q53 0 94 -18l-20 -112q-26 18 -54 18q-56 0 -56 -63v-29h142
v33q0 93 53.5 137t133.5 44q54 0 103 -20z" />
    <glyph glyph-name="f_h" unicode="fh" horiz-adv-x="826" 
d="M488 668v-294q35 99 144 99q58 0 97 -36.5t39 -109.5v-327h-134v277q0 84 -62 84q-84 0 -84 -106v-255h-134v552q-35 22 -71 22q-71 0 -71 -74v-38h91v-103h-91v-359h-133v359h-68v103h68v33q0 94 53.5 137.5t133.5 43.5q54 0 103 -20z" />
    <glyph glyph-name="f_j" unicode="fj" horiz-adv-x="551" 
d="M354 26v333h-142v-359h-133v359h-68v103h68v30q0 51 18 88t48.5 57t64.5 29.5t73 9.5q81 0 143 -34l-46 -108q-39 29 -88 29q-80 0 -80 -75v-26h276v-457q0 -111 -71 -163.5t-192 -43.5v113q68 -10 98.5 14t30.5 101z" />
    <glyph glyph-name="f_k" unicode="fk" horiz-adv-x="810" 
d="M488 668v-374h26l117 168h155l-160 -215l175 -247h-156l-129 190h-28v-190h-134v552q-35 22 -71 22q-71 0 -71 -74v-38h91v-103h-91v-359h-133v359h-68v103h68v33q0 94 53.5 137.5t133.5 43.5q54 0 103 -20z" />
    <glyph glyph-name="ff" unicode="ff" horiz-adv-x="595" 
d="M354 359h-142v-359h-133v359h-68v103h68v32q0 90 49.5 131t119.5 41q53 0 94 -18l-20 -112q-26 18 -54 18q-56 0 -56 -63v-29h142v34q0 93 52.5 136t132.5 44q55 0 114 -18l-21 -124q-37 26 -75 26q-69 0 -69 -72v-26h118v-103h-118v-359h-134v359z" />
    <glyph glyph-name="ffi" unicode="ffi" horiz-adv-x="826" 
d="M354 462v30q0 51 18 88t49 57t65 29.5t73 9.5q80 0 142 -34l-46 -108q-39 29 -88 29q-79 0 -79 -75v-26h275v-462h-133v359h-142v-359h-134v359h-142v-359h-133v359h-68v103h68v32q0 90 49.5 131t119.5 41q53 0 94 -18l-20 -112q-26 18 -54 18q-56 0 -56 -63v-29h142z
" />
    <glyph glyph-name="ffl" unicode="ffl" horiz-adv-x="864" 
d="M354 462v33q0 93 53.5 137t133.5 44q54 0 103 -20l119 12v-520q0 -40 43 -40q20 0 35 7l-6 -112q-45 -12 -77 -12q-56 0 -92 28.5t-36 89.5v443q-35 22 -71 22q-71 0 -71 -74v-38h90v-103h-90v-359h-134v359h-142v-359h-133v359h-68v103h68v32q0 90 49.5 131t119.5 41
q53 0 94 -18l-20 -112q-26 18 -54 18q-56 0 -56 -63v-29h142z" />
    <glyph glyph-name="fi" unicode="fi" horiz-adv-x="551" 
d="M79 359h-68v103h68v30q0 51 18 88t48.5 57t64.5 29.5t73 9.5q81 0 143 -34l-46 -108q-39 29 -88 29q-80 0 -80 -75v-26h276v-462h-134v359h-142v-359h-133v359z" />
    <glyph glyph-name="fl" unicode="fl" horiz-adv-x="589" 
d="M566 115l-6 -112q-46 -12 -77 -12q-56 0 -92.5 28.5t-36.5 89.5v443q-35 22 -71 22q-71 0 -71 -74v-38h91v-103h-91v-359h-133v359h-68v103h68v33q0 94 53.5 137.5t133.5 43.5q54 0 103 -20l119 12v-520q0 -40 42 -40q19 0 36 7z" />
    <glyph glyph-name=".notdef" horiz-adv-x="755" 
d="M83 0v589h589v-589h-589zM377 264l-221 -221h443zM156 546l221 -222l222 222h-443zM407 294l222 -221v443zM347 294l-221 222v-443z" />
    <glyph glyph-name=".null" horiz-adv-x="0" 
 />
    <glyph glyph-name="nonmarkingreturn" horiz-adv-x="333" 
 />
    <glyph glyph-name="space" unicode=" " horiz-adv-x="221" 
 />
    <glyph glyph-name="exclam" unicode="!" horiz-adv-x="243" 
d="M40 589h163l-37 -391h-89zM39 72q0 35 23.5 56.5t59.5 21.5t60 -21.5t24 -56.5t-23.5 -56t-60.5 -21q-36 0 -59.5 21t-23.5 56z" />
    <glyph glyph-name="quotedbl" unicode="&#x22;" horiz-adv-x="415" 
d="M64 412v256h131l-51 -256h-80zM240 412v256h131l-51 -256h-80z" />
    <glyph glyph-name="numbersign" unicode="#" horiz-adv-x="641" 
d="M589 121h-168l-37 -121h-97l37 121h-91l-37 -121h-97l37 121h-104v92h132l23 74h-135v92h163l32 102h99l-32 -102h89l32 102h98l-32 -102h108v-92h-136l-23 -74h139v-92zM285 287l-23 -74h90l23 74h-90z" />
    <glyph glyph-name="dollar" unicode="$" horiz-adv-x="490" 
d="M224 -106v95q-165 6 -185 121l104 44q16 -62 81 -73v104l-41 8q-128 28 -128 145q0 141 169 154v82h50v-82q78 -5 122 -38.5t46 -95.5l-116 -15q-5 47 -52 57v-107l33 -5q143 -25 143 -152q0 -70 -47.5 -106t-128.5 -41v-95h-50zM327 122q0 22 -12 34t-41 19v-95
q53 5 53 42zM174 354q0 -42 50 -52v99q-50 -8 -50 -47z" />
    <glyph glyph-name="percent" unicode="%" horiz-adv-x="883" 
d="M179 229q-75 0 -113.5 51t-38.5 133q0 81 40.5 132.5t111.5 51.5q72 0 112.5 -51.5t40.5 -132.5q0 -82 -38.5 -133t-114.5 -51zM179 512q-25 0 -40 -27t-15 -74q0 -44 15 -72t40 -28q26 0 41 27.5t15 72.5q0 47 -14.5 74t-41.5 27zM246 0l305 589h81l-307 -589h-79z
M703 -7q-75 0 -113.5 51t-38.5 133q0 81 40.5 132.5t111.5 51.5q72 0 112.5 -51.5t40.5 -132.5q0 -82 -38.5 -133t-114.5 -51zM703 276q-25 0 -40 -27t-15 -74q0 -44 15 -72t40 -28q26 0 41 27.5t15 72.5q0 47 -14.5 74t-41.5 27z" />
    <glyph glyph-name="ampersand" unicode="&#x26;" horiz-adv-x="580" 
d="M574 72l-96 -86l-69 66q-77 -64 -201 -64q-81 0 -138 39t-57 119q0 55 34 96.5t102 58.5l-32 32q-58 55 -58 123q0 70 53 107.5t136 37.5q79 0 129.5 -37.5t50.5 -105.5q0 -52 -35.5 -84.5t-92.5 -44.5l115 -110q20 33 23 88l109 -39q-11 -73 -54 -123zM146 162
q0 -35 23.5 -55.5t63.5 -20.5q66 0 101 39l-134 129q-54 -37 -54 -92zM247 511q-24 0 -38 -13.5t-14 -34.5q0 -26 26 -54l36 -38q48 36 48 85q0 26 -15 40.5t-43 14.5z" />
    <glyph glyph-name="quotesingle" unicode="'" horiz-adv-x="239" 
d="M64 412v256h131l-51 -256h-80z" />
    <glyph glyph-name="parenleft" unicode="(" horiz-adv-x="362" 
d="M184 233q0 -130 42 -225.5t127 -209.5h-141q-73 95 -115.5 194t-42.5 241t42.5 241t115.5 194h141q-85 -113 -127 -209t-42 -226z" />
    <glyph glyph-name="parenright" unicode=")" horiz-adv-x="362" 
d="M178 233q-1 130 -43 226t-126 209h142q46 -62 75.5 -111t55.5 -137t26 -187t-26 -187t-55.5 -137t-75.5 -111h-142q84 114 126 209.5t43 225.5z" />
    <glyph glyph-name="asterisk" unicode="*" horiz-adv-x="406" 
d="M254 599l-19 -107l98 49l28 -91l-106 -18l77 -77l-81 -59l-47 98l-49 -98l-79 59l76 77l-107 18l31 90l96 -48l-18 107h100z" />
    <glyph glyph-name="plus" unicode="+" horiz-adv-x="498" 
d="M45 285h165v160h74v-160h169v-74h-169v-174h-74v174h-165v74z" />
    <glyph glyph-name="comma" unicode="," horiz-adv-x="290" 
d="M234 51q0 -170 -186 -172v55q95 8 95 75q-36 -6 -63 14t-27 59q0 37 24 57.5t61 20.5q42 0 69 -30t27 -79z" />
    <glyph glyph-name="hyphen" unicode="-" horiz-adv-x="372" 
d="M62 202v113h248v-113h-248z" />
    <glyph glyph-name="period" unicode="." horiz-adv-x="292" 
d="M60 79q0 37 24.5 62.5t59.5 25.5q38 0 63 -25t25 -63q0 -36 -25 -60t-63 -24q-35 0 -59.5 24.5t-24.5 59.5z" />
    <glyph glyph-name="slash" unicode="/" horiz-adv-x="430" 
d="M10 -203l273 871h117l-275 -871h-115z" />
    <glyph glyph-name="zero" unicode="0" horiz-adv-x="584" 
d="M292 -12q-116 0 -183 71.5t-67 181.5q0 109 67 180.5t183 71.5t183 -71.5t67 -180.5q0 -110 -67 -181.5t-183 -71.5zM292 375q-57 0 -89 -38t-32 -98q0 -61 32 -99t89 -38q58 0 90 38t32 99q0 60 -32 98t-90 38z" />
    <glyph glyph-name="one" unicode="1" horiz-adv-x="365" 
d="M279 0h-125v360l-134 -16v109l259 36v-489z" />
    <glyph glyph-name="two" unicode="2" horiz-adv-x="479" 
d="M439 111v-111h-399v93q143 72 196.5 121t53.5 99q0 30 -16.5 47t-46.5 17q-62 0 -69 -83l-123 30q11 83 66.5 126t140.5 43q77 0 128 -44.5t51 -123.5q0 -156 -206 -210v-4h224z" />
    <glyph glyph-name="three" unicode="3" horiz-adv-x="477" 
d="M273 189v-5q77 -7 116.5 -49t39.5 -108q0 -79 -59 -122t-161 -43q-84 0 -138.5 36.5t-66.5 103.5l127 47q8 -87 87 -87q36 0 58 18t22 53q0 102 -158 103v93q88 4 115.5 29.5t27.5 66.5q0 28 -17.5 44t-43.5 16q-28 0 -47.5 -19t-22.5 -55l-126 34q12 70 66.5 109
t137.5 39q84 0 136 -39.5t52 -115.5q0 -132 -145 -149z" />
    <glyph glyph-name="four" unicode="4" horiz-adv-x="566" 
d="M305 -131v157h-286v89l295 366h125v-356h98v-99h-98v-157h-134zM210 125h95v111l5 95h-4q-15 -30 -39 -61l-67 -88q-12 -16 -26 -30.5t-22 -20.5l-8 -6v-4q23 4 66 4z" />
    <glyph glyph-name="five" unicode="5" horiz-adv-x="490" 
d="M77 132l13 349h328v-119h-221l-5 -131q31 22 80 22q77 0 124 -49.5t47 -134.5q0 -101 -63.5 -154t-160.5 -53q-90 0 -145 36t-67 103l120 49q4 -44 29.5 -67.5t67.5 -23.5q43 0 68.5 26.5t25.5 80.5q0 47 -23.5 69.5t-61.5 22.5q-35 0 -59 -26h-97z" />
    <glyph glyph-name="six" unicode="6" horiz-adv-x="527" 
d="M477 499l-91 -69q-26 63 -95 63q-62 0 -95.5 -60t-33.5 -168h4q12 52 49 81t87 29q84 0 134 -53t50 -132q0 -92 -58 -147t-159 -55q-105 0 -165.5 74t-60.5 210q0 162 70.5 245.5t179.5 83.5q63 0 112 -27.5t72 -74.5zM189 182q0 -40 25.5 -65.5t61.5 -25.5
q38 0 63.5 25.5t25.5 65.5q0 42 -25.5 67t-63.5 25q-36 0 -61.5 -25t-25.5 -67z" />
    <glyph glyph-name="seven" unicode="7" horiz-adv-x="492" 
d="M309 362h-170v-72h-110v191h419v-95l-208 -517h-133z" />
    <glyph glyph-name="eight" unicode="8" horiz-adv-x="524" 
d="M262 -12q-107 0 -163.5 44.5t-56.5 117.5q0 56 34 95.5t89 53.5v4q-55 12 -82.5 49.5t-27.5 87.5q0 71 56 116t151 45q96 0 151.5 -45t55.5 -116q0 -50 -27.5 -87.5t-81.5 -49.5v-4q54 -14 88 -53.5t34 -95.5q0 -73 -56.5 -117.5t-163.5 -44.5zM262 508q-36 0 -57 -22
t-21 -56q0 -39 23 -60t55 -21t55 21t23 60q0 34 -21 56t-57 22zM262 249q-36 0 -62.5 -21.5t-26.5 -59.5q0 -36 24 -59t65 -23t65 23t24 59q0 38 -26.5 59.5t-62.5 21.5z" />
    <glyph glyph-name="nine" unicode="9" horiz-adv-x="523" 
d="M22 -33l91 67q27 -66 101 -66q76 0 111.5 68.5t35.5 181.5h-4q-24 -112 -136 -112q-84 0 -133.5 52t-49.5 134q0 92 56.5 146.5t155.5 54.5q112 0 171 -71.5t59 -214.5q0 -168 -71.5 -256.5t-201.5 -88.5q-63 0 -113 28t-72 77zM334 298q0 40 -25.5 65t-61.5 25
q-37 0 -62.5 -25t-25.5 -65q0 -42 25 -67t63 -25q37 0 62 25t25 67z" />
    <glyph glyph-name="colon" unicode=":" horiz-adv-x="292" 
d="M60 79q0 37 24.5 62.5t59.5 25.5q38 0 63 -25t25 -63q0 -36 -25 -60t-63 -24q-35 0 -59.5 24.5t-24.5 59.5zM60 379q0 37 24.5 62.5t59.5 25.5q38 0 63 -25t25 -63q0 -36 -25 -60t-63 -24q-35 0 -59.5 24.5t-24.5 59.5z" />
    <glyph glyph-name="semicolon" unicode=";" horiz-adv-x="290" 
d="M234 51q0 -170 -186 -172v55q95 8 95 75q-36 -6 -63 14t-27 59q0 37 24 57.5t61 20.5q42 0 69 -30t27 -79zM53 379q0 37 24.5 62.5t59.5 25.5q38 0 63 -25t25 -63q0 -36 -25 -60t-63 -24q-35 0 -59.5 24.5t-24.5 59.5z" />
    <glyph glyph-name="less" unicode="&#x3c;" horiz-adv-x="398" 
d="M352 398l-189 -151l185 -152l-54 -64l-249 216l254 212z" />
    <glyph glyph-name="equal" unicode="=" horiz-adv-x="498" 
d="M453 134h-408v75h408v-75zM453 283h-408v75h408v-75z" />
    <glyph glyph-name="greater" unicode="&#x3e;" horiz-adv-x="398" 
d="M234 247l-189 151l53 61l254 -212l-249 -216l-54 64z" />
    <glyph glyph-name="question" unicode="?" horiz-adv-x="439" 
d="M125 393l-125 45q36 163 221 163q93 0 151.5 -51t58.5 -133q0 -46 -16 -80.5t-43.5 -52.5t-57 -26.5t-63.5 -8.5v-61h-116v134h48q55 0 80.5 19t25.5 66q0 37 -21 57t-56 20q-79 0 -87 -91zM110 72q0 35 24 56.5t59 21.5q36 0 60 -21.5t24 -56.5t-23.5 -56t-60.5 -21
q-35 0 -59 21t-24 56z" />
    <glyph glyph-name="at" unicode="@" horiz-adv-x="892" 
d="M514 169v70q0 38 -23 58t-52 20q-32 0 -55 -28.5t-23 -89.5q0 -52 21 -80.5t57 -28.5q29 0 52 19.5t23 59.5zM637 401v-294q0 -26 8.5 -37.5t27.5 -11.5q44 0 69.5 52.5t25.5 144.5q0 135 -86.5 206.5t-221.5 71.5q-140 0 -238 -90.5t-98 -250.5q0 -157 95.5 -243
t259.5 -86q98 0 197 33l16 -67q-96 -31 -214 -31q-208 0 -320.5 105.5t-112.5 288.5q0 180 117 292.5t299 112.5q181 0 282.5 -95t101.5 -239q0 -275 -203 -275q-113 0 -122 90q-23 -90 -131 -90q-69 0 -114.5 52.5t-45.5 149.5q0 103 47 161.5t132 58.5q88 0 116 -62l29 53
h84z" />
    <glyph glyph-name="A" unicode="A" horiz-adv-x="616" 
d="M460 0l-43 123h-223l-42 -123h-142l213 589h168l215 -589h-146zM255 303l-23 -67h145l-24 66q-15 43 -26.5 85t-15.5 63l-4 20h-4q-15 -72 -48 -167z" />
    <glyph glyph-name="B" unicode="B" horiz-adv-x="571" 
d="M396 304v-4q63 -8 96.5 -45t33.5 -94q0 -76 -51.5 -118.5t-156.5 -42.5h-241v589h242q89 0 136 -39t47 -109q0 -55 -28 -90t-78 -47zM213 343h78q76 0 76 65q0 66 -79 66h-75v-131zM213 244v-129h96q40 0 60 15t20 51q0 63 -80 63h-96z" />
    <glyph glyph-name="C" unicode="C" horiz-adv-x="586" 
d="M449 192l115 -69q-41 -70 -99 -102.5t-154 -32.5q-122 0 -196 81t-74 226q0 146 76 226t212 80q172 0 240 -149l-131 -64q-29 93 -114 93q-67 0 -105 -50.5t-38 -138.5t36.5 -136t108.5 -48q85 0 123 84z" />
    <glyph glyph-name="D" unicode="D" horiz-adv-x="622" 
d="M213 115h59q83 0 125 41t42 137q0 100 -40.5 140.5t-118.5 40.5h-67v-359zM285 0h-208v589h217q131 0 209 -70t78 -218q0 -155 -80 -228t-216 -73z" />
    <glyph glyph-name="E" unicode="E" horiz-adv-x="522" 
d="M472 118v-118h-395v589h395v-118h-259v-117h228v-113h-228v-123h259z" />
    <glyph glyph-name="F" unicode="F" horiz-adv-x="495" 
d="M213 0h-136v589h384v-118h-248v-141h217v-113h-217v-217z" />
    <glyph glyph-name="G" unicode="G" horiz-adv-x="629" 
d="M318 314h254v-314h-84l-22 66q-44 -78 -162 -78q-120 0 -191.5 77t-71.5 227q0 147 76 228t212 81q87 0 148.5 -39t91.5 -110l-131 -64q-28 93 -114 93q-57 0 -100 -45t-43 -146q0 -86 35 -138.5t110 -52.5q57 0 86.5 24t29.5 63v20h-124v108z" />
    <glyph glyph-name="H" unicode="H" horiz-adv-x="652" 
d="M213 0h-136v589h136v-231h226v231h136v-589h-136v240h-226v-240z" />
    <glyph glyph-name="I" unicode="I" horiz-adv-x="290" 
d="M77 589h136v-589h-136v589z" />
    <glyph glyph-name="J" unicode="J" horiz-adv-x="469" 
d="M273 589h135v-418q0 -95 -57 -139t-149 -44q-144 0 -202 113l100 90q19 -46 42 -68.5t58 -22.5q40 0 56.5 23t16.5 72v394z" />
    <glyph glyph-name="K" unicode="K" horiz-adv-x="581" 
d="M569 0h-162l-159 240h-35v-240h-136v589h136v-231h36l146 231h156l-186 -285z" />
    <glyph glyph-name="L" unicode="L" horiz-adv-x="471" 
d="M77 589h136v-471h230v-118h-366v589z" />
    <glyph glyph-name="M" unicode="M" horiz-adv-x="739" 
d="M402 136h-65l-81 135q-14 22 -25 44.5t-15 34.5l-5 11h-4q6 -33 6 -100v-261h-136v589h138l111 -199q15 -26 25.5 -47.5t13.5 -30.5l3 -8h4q9 28 42 86l112 199h136v-589h-135v261l5 100h-4q-14 -41 -44 -90z" />
    <glyph glyph-name="N" unicode="N" horiz-adv-x="676" 
d="M205 589l208 -285q15 -20 27 -39.5t17 -29.5l5 -10h4q-3 50 -3 125v239h136v-589h-124l-208 280q-17 22 -31 44t-20 32l-5 11h-4q6 -48 6 -133v-234h-136v589h128z" />
    <glyph glyph-name="O" unicode="O" horiz-adv-x="641" 
d="M320 -12q-132 0 -205.5 79.5t-73.5 226.5t73.5 227t205.5 80t206 -80t74 -227t-74 -226.5t-206 -79.5zM320 480q-68 0 -103 -49.5t-35 -138.5t35 -138t103 -49q69 0 104 49t35 138t-35 138.5t-104 49.5z" />
    <glyph glyph-name="P" unicode="P" horiz-adv-x="531" 
d="M213 475v-174h70q83 0 83 84q0 90 -83 90h-70zM213 0h-136v589h210q111 0 162.5 -49.5t51.5 -149.5q0 -94 -53 -147t-148 -53h-87v-190z" />
    <glyph glyph-name="Q" unicode="Q" horiz-adv-x="641" 
d="M531 -49l-37 -116q-194 -1 -249 161q-98 20 -151 97t-53 201q0 147 73.5 227t205.5 80t206 -80t74 -227q0 -130 -58.5 -208t-165.5 -94q56 -50 155 -41zM320 480q-68 0 -103 -49.5t-35 -138.5t35 -138t103 -49q69 0 104 49t35 138t-35 138.5t-104 49.5z" />
    <glyph glyph-name="R" unicode="R" horiz-adv-x="582" 
d="M555 0h-151q-20 16 -31 61l-22 88q-9 36 -26.5 47.5t-53.5 11.5h-58v-208h-136v589h232q214 0 214 -180q0 -66 -35 -104t-94 -44v-2q41 -7 64 -26.5t34 -59.5l30 -110q10 -39 33 -63zM213 474v-154h87q84 0 84 77t-84 77h-87z" />
    <glyph glyph-name="S" unicode="S" horiz-adv-x="515" 
d="M22 132l124 55q8 -43 38 -69t72 -26q35 0 56.5 14.5t21.5 43.5t-20.5 45.5t-77.5 34.5q-103 33 -147 76.5t-44 118.5q0 92 59.5 134.5t147.5 42.5q207 0 223 -153l-135 -34q-4 37 -28 56t-57 19q-30 0 -49 -14t-19 -41q0 -29 22.5 -45t78.5 -33q100 -31 143.5 -72.5
t43.5 -121.5q0 -90 -63.5 -132.5t-165.5 -42.5q-91 0 -146.5 33.5t-77.5 110.5z" />
    <glyph glyph-name="T" unicode="T" horiz-adv-x="479" 
d="M305 0h-134v471h-161v118h459v-118h-164v-471z" />
    <glyph glyph-name="U" unicode="U" horiz-adv-x="608" 
d="M412 589h135v-392q0 -111 -67 -160t-176 -49t-176 49t-67 160v392h136v-354q0 -68 23.5 -101t83.5 -33q61 0 84.5 33.5t23.5 101.5v353z" />
    <glyph glyph-name="V" unicode="V" horiz-adv-x="572" 
d="M155 589l99 -317q12 -37 20.5 -76t11.5 -60l2 -21h4q7 75 32 156l96 318h142l-194 -589h-164l-194 589h145z" />
    <glyph glyph-name="W" unicode="W" horiz-adv-x="873" 
d="M521 589l73 -324q8 -37 15 -79t10 -65l3 -23h4q8 84 25 166l66 325h138l-129 -589h-198l-67 291q-8 37 -14 78t-7 64l-2 23h-4q-5 -82 -25 -166l-70 -290h-191l-130 589h144l68 -324q8 -37 14.5 -79t9.5 -65l3 -23h4q9 84 26 166l72 325h162z" />
    <glyph glyph-name="X" unicode="X" horiz-adv-x="589" 
d="M423 0l-85 128q-17 27 -27.5 48t-12.5 28l-2 7h-4q-5 -22 -43 -83l-81 -128h-158l202 296l-194 293h162l70 -111q20 -32 31.5 -55t12.5 -30l2 -7h5q1 19 43 91l65 112h153l-183 -286l200 -303h-156z" />
    <glyph glyph-name="Y" unicode="Y" horiz-adv-x="545" 
d="M164 589l69 -140q16 -35 27 -67t14 -46l3 -15h4q6 51 43 127l68 141h143l-188 -393v-196h-136v196l-201 393h154z" />
    <glyph glyph-name="Z" unicode="Z" horiz-adv-x="513" 
d="M476 494l-222 -304q-16 -22 -31.5 -40t-23.5 -26l-8 -7v-4q29 5 80 5h214v-118h-457v98l215 301q16 22 32 40t23 25l8 8v4q-28 -5 -80 -5h-191v118h441v-95z" />
    <glyph glyph-name="bracketleft" unicode="[" horiz-adv-x="372" 
d="M212 568v-672h125v-99h-260v871h260v-100h-125z" />
    <glyph glyph-name="backslash" unicode="\" horiz-adv-x="430" 
d="M147 668l273 -871h-115l-275 871h117z" />
    <glyph glyph-name="bracketright" unicode="]" horiz-adv-x="372" 
d="M160 -104v672h-125v100h260v-871h-260v99h125z" />
    <glyph glyph-name="asciicircum" unicode="^" horiz-adv-x="531" 
d="M368 321l-55 117q-19 41 -31 75.5t-14 48.5l-2 13h-4q-3 -47 -47 -136l-59 -118h-126l177 347h118l176 -347h-133z" />
    <glyph glyph-name="underscore" unicode="_" horiz-adv-x="481" 
d="M50 -122v100h381v-100h-381z" />
    <glyph glyph-name="grave" unicode="`" horiz-adv-x="399" 
d="M318 526h-121l-117 153h168z" />
    <glyph glyph-name="a" unicode="a" horiz-adv-x="501" 
d="M289 145v47q-127 4 -127 -63q0 -21 13.5 -33.5t37.5 -12.5q30 0 53 15.5t23 46.5zM421 320v-180q0 -42 34 -42q13 0 29 7v-97q-27 -17 -76 -17q-88 0 -110 73q-28 -76 -134 -76q-62 0 -99 34t-37 93q0 79 65 117.5t196 31.5v44q0 64 -54 64q-55 0 -58 -68l-133 25
q5 71 59 107.5t137 36.5q88 0 134.5 -38.5t46.5 -114.5z" />
    <glyph glyph-name="b" unicode="b" 
d="M196 257v-68q0 -54 26.5 -79.5t61.5 -25.5q45 0 75 38t30 108q0 136 -96 136q-39 0 -68 -29.5t-29 -79.5zM190 67l-33 -67h-94v668h134v-292q35 97 149 97q85 0 131.5 -60.5t46.5 -170.5q0 -116 -52.5 -185t-144.5 -69q-56 0 -91 22t-46 57z" />
    <glyph glyph-name="c" unicode="c" horiz-adv-x="470" 
d="M333 162l118 -38q-12 -67 -65 -101.5t-130 -34.5q-102 0 -162.5 63.5t-60.5 177.5t61 179t163 65q82 0 132 -41t55 -111l-113 -31q-11 78 -75 78q-44 0 -68.5 -36.5t-24.5 -100.5q0 -66 25 -103t70 -37q59 0 75 71z" />
    <glyph glyph-name="d" unicode="d" 
d="M361 192v86q0 48 -26 72t-64 24q-45 0 -74.5 -35.5t-29.5 -111.5q0 -65 27 -100.5t75 -35.5q37 0 64.5 26.5t27.5 74.5zM360 401v267h134v-668h-116l-17 80q-22 -92 -144 -92q-80 0 -132 61.5t-52 171.5q0 119 54 185.5t152 66.5q45 0 78.5 -19.5t42.5 -52.5z" />
    <glyph glyph-name="e" unicode="e" horiz-adv-x="488" 
d="M259 91q62 0 81 63l114 -39q-17 -66 -70 -96.5t-128 -30.5q-101 0 -162 63t-61 173q0 118 60 183.5t165 65.5q95 0 145 -56t50 -149q0 -32 -6 -60h-285q2 -54 27 -85.5t70 -31.5zM166 282h159q1 6 1 16q0 34 -19 55t-54 21q-37 0 -60 -25.5t-27 -66.5z" />
    <glyph glyph-name="f" unicode="f" horiz-adv-x="319" 
d="M79 359h-68v103h68v34q0 94 51 137t134 43q65 0 112 -22l-19 -111q-35 20 -79 20q-32 0 -49 -15.5t-17 -55.5v-30h118v-103h-118v-359h-133v359z" />
    <glyph glyph-name="g" unicode="g" horiz-adv-x="502" 
d="M240 473q79 0 131 -29q22 22 35 70l105 -35q-4 -32 -28.5 -55t-55.5 -32q21 -33 21 -82q0 -77 -59.5 -118t-152.5 -41q-40 0 -56 6q-22 -14 -22 -38q0 -28 37 -28h132q77 0 120 -37.5t43 -98.5q0 -47 -22.5 -81t-62.5 -52t-84.5 -25.5t-98.5 -7.5q-216 0 -216 116
q0 84 122 93q-33 2 -54 26t-21 56q0 29 20 54.5t58 36.5q-49 19 -72.5 52t-23.5 87q0 79 55.5 121t149.5 42zM129 -69q0 -53 108 -53q69 0 98.5 13t29.5 41q0 21 -13.5 30t-43.5 9h-114q-65 0 -65 -40zM170 310q0 -32 18 -51.5t52 -19.5q71 0 71 71q0 72 -71 72
q-70 -1 -70 -72z" />
    <glyph glyph-name="h" unicode="h" horiz-adv-x="535" 
d="M197 668v-294q35 99 144 99q58 0 97 -36.5t39 -109.5v-327h-134v277q0 84 -62 84q-84 0 -84 -106v-255h-134v668h134z" />
    <glyph glyph-name="i" unicode="i" horiz-adv-x="260" 
d="M49 603q0 37 23 57.5t58 20.5q37 0 60 -20.5t23 -57.5q0 -36 -23.5 -56t-59.5 -20q-35 0 -58 20t-23 56zM63 462h134v-462h-134v462z" />
    <glyph glyph-name="j" unicode="j" horiz-adv-x="260" 
d="M63 462h134v-457q0 -111 -71 -163.5t-192 -43.5v113q68 -10 98.5 14t30.5 101v436zM47 603q0 37 23 57.5t58 20.5q37 0 60.5 -20.5t23.5 -57.5q0 -36 -23.5 -56t-60.5 -20q-35 0 -58 20t-23 56z" />
    <glyph glyph-name="k" unicode="k" horiz-adv-x="519" 
d="M335 247l175 -247h-156l-130 190h-27v-190h-134v668h134v-374h25l118 168h155z" />
    <glyph glyph-name="l" unicode="l" horiz-adv-x="289" 
d="M266 115l-7 -112q-45 -12 -77 -12q-56 0 -92 28.5t-36 89.5v559h134v-520q0 -40 42 -40q19 0 36 7z" />
    <glyph glyph-name="m" unicode="m" horiz-adv-x="797" 
d="M457 372q37 101 150 101q60 0 96 -35.5t36 -109.5v-328h-134v277q0 84 -61 84q-76 0 -76 -106v-255h-134v277q0 41 -13.5 62.5t-47.5 21.5q-76 0 -76 -107v-254h-134v462h114l16 -89q36 100 142 100t122 -101z" />
    <glyph glyph-name="n" unicode="n" horiz-adv-x="535" 
d="M177 462l16 -89q36 100 148 100q58 0 97 -36.5t39 -109.5v-327h-134v277q0 84 -62 84q-84 0 -84 -107v-254h-134v462h114z" />
    <glyph glyph-name="o" unicode="o" horiz-adv-x="513" 
d="M257 -12q-103 0 -163.5 64.5t-60.5 179.5q0 116 60.5 178.5t163.5 62.5t163 -62.5t60 -178.5q0 -115 -60.5 -179.5t-162.5 -64.5zM257 366q-92 0 -92 -134q0 -72 22.5 -106t69.5 -34q91 0 91 140q0 134 -91 134z" />
    <glyph glyph-name="p" unicode="p" 
d="M196 253v-64q0 -54 26.5 -79.5t61.5 -25.5q45 0 75 38t30 108q0 136 -96 136q-39 0 -68 -30t-29 -83zM197 61v-264h-134v665h114l17 -89q38 100 152 100q85 0 131.5 -60.5t46.5 -170.5q0 -116 -52.5 -185t-145.5 -69q-51 0 -85 21t-44 52z" />
    <glyph glyph-name="q" unicode="q" 
d="M361 191v87q0 48 -26 72t-64 24q-45 0 -74.5 -35.5t-29.5 -111.5q0 -65 27 -100.5t75 -35.5q37 0 64.5 26.5t27.5 73.5zM370 402l32 60h92v-665h-132v283q-24 -92 -145 -92q-80 0 -132 61.5t-52 171.5q0 119 54 185.5t152 66.5q99 0 131 -71z" />
    <glyph glyph-name="r" unicode="r" horiz-adv-x="394" 
d="M382 472l-15 -148q-23 8 -52 8q-48 0 -83 -28t-35 -93v-211h-134v462h116l16 -127q17 68 59.5 105t127.5 32z" />
    <glyph glyph-name="s" unicode="s" horiz-adv-x="445" 
d="M18 107l110 44q14 -69 90 -69q63 0 63 40q0 19 -13.5 29.5t-45.5 18.5l-68 16q-118 31 -118 137q0 81 53 115.5t135 34.5q173 0 183 -130l-125 -18q-4 27 -19 38t-45 11q-24 0 -38 -10t-14 -28q0 -33 45 -42l65 -14q138 -29 138 -149q0 -74 -53.5 -108.5t-144.5 -34.5
q-88 0 -136.5 27.5t-61.5 91.5z" />
    <glyph glyph-name="t" unicode="t" horiz-adv-x="386" 
d="M348 131l23 -113q-59 -30 -142 -30q-152 0 -152 149v222h-67v103h68v98l134 16v-114h137v-103h-138v-192q0 -36 13.5 -50.5t42.5 -14.5q40 0 81 29z" />
    <glyph glyph-name="u" unicode="u" horiz-adv-x="531" 
d="M352 0l-16 86q-25 -98 -143 -98q-139 0 -139 149v325h134v-287q0 -86 63 -86q37 0 60 31t23 94v248h134v-462h-116z" />
    <glyph glyph-name="v" unicode="v" horiz-adv-x="481" 
d="M164 0l-162 462h142l63 -210q10 -34 18 -71.5t11 -58.5l2 -20h4q10 75 33 149l67 211h137l-168 -462h-147z" />
    <glyph glyph-name="w" unicode="w" horiz-adv-x="721" 
d="M423 462l51 -183q12 -41 19.5 -86t9.5 -69l2 -25h4q4 85 26 178l43 185h133l-120 -462h-159l-45 165q-8 33 -14 70t-8 58l-2 21h-4q-5 -74 -24 -150l-40 -164h-158l-127 462h136l48 -184q11 -41 18 -86t9 -69l2 -24h4q5 87 27 180l47 183h122z" />
    <glyph glyph-name="x" unicode="x" horiz-adv-x="491" 
d="M337 0l-52 85q-16 27 -26 48t-11 29l-2 8h-4q-6 -26 -42 -86l-50 -84h-144l149 231l-140 231h155l35 -65q16 -32 26.5 -56t12.5 -32l3 -8h4q5 24 44 95l37 66h146l-143 -227l150 -235h-148z" />
    <glyph glyph-name="y" unicode="y" horiz-adv-x="484" 
d="M148 462l60 -210q12 -40 20 -77.5t10 -54.5l2 -17h4q6 59 33 148l64 211h141l-183 -503q-37 -100 -84.5 -133.5t-126.5 -33.5q-37 0 -83 11l20 118q27 -16 61 -16q32 0 52.5 15.5t34.5 53.5l-171 488h146z" />
    <glyph glyph-name="z" unicode="z" horiz-adv-x="427" 
d="M390 378l-149 -202q-16 -22 -31.5 -40t-23.5 -26l-8 -7v-4q29 5 80 5h141v-104h-371v81l143 203q16 22 31.5 40t23.5 26l8 7v4q-28 -5 -80 -5h-118v106h354v-84z" />
    <glyph glyph-name="braceleft" unicode="{" horiz-adv-x="421" 
d="M157 235v-4q47 -4 74 -28.5t27 -81.5v-156q0 -35 10.5 -51t37.5 -16q31 0 64 17l22 -92q-45 -29 -120 -29q-141 0 -141 147v164q0 44 -18 60.5t-51 16.5h-41v101h41q33 0 51 17t18 60v165q0 147 141 147q75 0 120 -29l-22 -93q-32 18 -64 18q-27 0 -37.5 -16.5
t-10.5 -50.5v-156q0 -60 -27 -83t-74 -27z" />
    <glyph glyph-name="bar" unicode="|" horiz-adv-x="307" 
d="M207 -203h-107v871h107v-871z" />
    <glyph glyph-name="braceright" unicode="}" horiz-adv-x="421" 
d="M264 231v4q-47 4 -74 27t-27 83v156q0 34 -10.5 50.5t-38.5 16.5q-31 0 -63 -18l-22 93q45 29 120 29q141 0 141 -147v-165q0 -43 18 -60t51 -17h41v-101h-41q-33 0 -51 -16.5t-18 -60.5v-164q0 -147 -141 -147q-75 0 -120 29l22 92q33 -17 63 -17q28 0 38.5 16t10.5 51
v156q0 57 27 81.5t74 28.5z" />
    <glyph glyph-name="asciitilde" unicode="~" horiz-adv-x="509" 
d="M331 194q-36 0 -74 23q-45 25 -58 25q-16 0 -25.5 -12.5t-5.5 -36.5h-74q-28 57 0 107t87 50q31 0 68 -21q47 -28 62 -28q33 0 26 46h78q26 -61 1 -107t-85 -46z" />
    <glyph glyph-name="nbspace" unicode="&#xa0;" horiz-adv-x="153" 
 />
    <glyph glyph-name="exclamdown" unicode="&#xa1;" horiz-adv-x="243" 
d="M203 -126h-163l37 391h89zM39 391q0 35 23.5 56t59.5 21q37 0 60.5 -21t23.5 -56t-24 -56.5t-60 -21.5t-59.5 21.5t-23.5 56.5z" />
    <glyph glyph-name="cent" unicode="&#xa2;" horiz-adv-x="518" 
d="M255 -106v95q-99 7 -156 70.5t-57 179.5q0 113 55.5 178t157.5 74v83h50v-82q137 -6 187 -127l-117 -60q-21 67 -70 78v-286q54 8 78 69l109 -67q-30 -54 -74.5 -80t-112.5 -30v-95h-50zM178 241q0 -122 77 -142v284q-77 -20 -77 -142z" />
    <glyph glyph-name="sterling" unicode="&#xa3;" horiz-adv-x="519" 
d="M358 195h-113q-2 -67 -40 -86h125q57 0 74 47l93 -54q-8 -49 -47 -75.5t-96 -26.5h-306v110h32q50 0 50 60q0 13 -3 25h-88v68h57q-15 33 -15 79q0 68 53.5 109.5t127.5 41.5q167 0 186 -137l-118 -30q-13 62 -66 62q-63 0 -63 -60q0 -21 25 -65h132v-68z" />
    <glyph glyph-name="currency" unicode="&#xa4;" horiz-adv-x="452" 
d="M323 424l66 66l33 -33l-65 -65q29 -42 29 -102t-26 -98l62 -61l-33 -33l-60 60q-41 -30 -101 -30q-63 0 -103 32l-62 -62l-33 33l64 64q-24 37 -24 95q0 59 27 100l-67 67l33 33l67 -68q40 28 98 28q57 0 95 -26zM228 377q-52 0 -52 -88q0 -89 52 -89t52 89q0 88 -52 88z
" />
    <glyph glyph-name="yen" unicode="&#xa5;" horiz-adv-x="565" 
d="M514 140h-158v-140h-136v140h-161v53h139l-28 47h-111v53h81l-109 188h154l66 -125q15 -28 24 -53.5t11 -36.5l1 -12h4q2 37 35 101l63 126h145l-103 -188h83v-53h-112l-26 -47h138v-53z" />
    <glyph glyph-name="brokenbar" unicode="&#xa6;" horiz-adv-x="307" 
d="M207 278h-107v390h107v-390zM207 -202h-107v389h107v-389z" />
    <glyph glyph-name="section" unicode="&#xa7;" horiz-adv-x="475" 
d="M40 29l108 43q19 -69 90 -69q26 0 41.5 10.5t15.5 28.5q0 16 -13.5 27t-45.5 20l-72 21q-56 17 -82 44t-26 73q0 41 22.5 66.5t56.5 33.5q-40 16 -58.5 52t-18.5 72q0 81 53 115.5t134 34.5q85 0 133 -33t51 -97l-125 -18q-4 49 -62 49q-24 0 -37 -10.5t-13 -27.5
q0 -31 50 -44l68 -19q63 -17 94 -48t31 -83q0 -41 -22.5 -67.5t-57.5 -32.5q77 -37 77 -121q0 -73 -53 -107.5t-142 -34.5q-176 0 -197 122zM299 246q0 21 -19 33t-60 23q-32 -11 -32 -42q0 -21 17.5 -32.5t61.5 -23.5q32 10 32 42z" />
    <glyph glyph-name="dieresis" unicode="&#xa8;" horiz-adv-x="528" 
d="M80 596q0 36 21 55.5t53 19.5q34 0 55 -19.5t21 -55.5q0 -35 -21 -55t-55 -20q-31 0 -52.5 20t-21.5 55zM298 596q0 36 21 55.5t53 19.5q34 0 55 -19.5t21 -55.5t-21.5 -55.5t-54.5 -19.5q-32 0 -53 20t-21 55z" />
    <glyph glyph-name="copyright" unicode="&#xa9;" horiz-adv-x="703" 
d="M432 247l91 -61q-29 -44 -69 -65t-105 -21q-83 0 -134.5 51t-51.5 144q0 94 52 145t145 51q118 0 163 -100l-99 -48q-17 58 -66 58q-36 0 -58.5 -28.5t-22.5 -75.5q0 -49 21 -76t59 -27q49 0 75 53zM45 294q0 132 89 219.5t217 87.5t217.5 -87.5t89.5 -219.5t-89.5 -219
t-217.5 -87t-217 87t-89 219zM76 294q0 -120 80.5 -198.5t196.5 -78.5q115 0 195 78.5t80 198.5t-80 199t-195 79q-116 0 -196.5 -79t-80.5 -199z" />
    <glyph glyph-name="ordfeminine" unicode="&#xaa;" horiz-adv-x="391" 
d="M210 382v36q-73 0 -73 -45q0 -29 30 -29q17 0 30 9.5t13 28.5zM315 499v-119q0 -21 18 -21q17 0 24 5v-70q-24 -12 -62 -12q-33 0 -51 9.5t-30 33.5q-22 -46 -90 -46q-41 0 -65 21.5t-24 60.5q0 102 175 101v29q0 37 -32 37q-15 0 -24 -11.5t-10 -28.5l-99 16
q4 47 42.5 72t99.5 25q57 0 92.5 -24.5t35.5 -77.5z" />
    <glyph glyph-name="guillemotleft" unicode="&#xab;" horiz-adv-x="549" 
d="M374 237v-4q22 -7 52 -40l93 -104l-67 -65l-198 212l198 212l67 -67l-93 -103q-14 -15 -27 -25t-19 -13zM151 237v-4q21 -7 52 -40l92 -104l-66 -65l-199 212l199 212l66 -67l-93 -103q-14 -15 -26.5 -25t-18.5 -13z" />
    <glyph glyph-name="logicalnot" unicode="&#xac;" horiz-adv-x="506" 
d="M375 240h-326v75h408v-193h-82v118z" />
    <glyph glyph-name="uni00AD" unicode="&#xad;" horiz-adv-x="348" 
d="M62 202v113h224v-113h-224z" />
    <glyph glyph-name="registered" unicode="&#xae;" horiz-adv-x="703" 
d="M532 121h-122q-15 12 -22 40l-10 35q-5 20 -16 27.5t-31 7.5h-13v-110h-107v361h155q144 0 144 -117q0 -47 -27 -71t-68 -28q31 -5 46.5 -15.5t24.5 -32.5l20 -54q8 -25 26 -43zM318 395v-83h29q58 0 58 39q0 44 -51 44h-36zM45 294q0 132 89 219.5t217 87.5t217.5 -87.5
t89.5 -219.5t-89.5 -219t-217.5 -87t-217 87t-89 219zM76 294q0 -120 80.5 -198.5t196.5 -78.5q115 0 195 78.5t80 198.5t-80 199t-195 79q-116 0 -196.5 -79t-80.5 -199z" />
    <glyph glyph-name="macron" unicode="&#xaf;" horiz-adv-x="454" 
d="M374 539h-294v108h294v-108z" />
    <glyph glyph-name="degree" unicode="&#xb0;" horiz-adv-x="266" 
d="M24 492q0 45 30 77t78 32t79 -32t31 -77q0 -46 -31 -77.5t-79 -31.5t-78 31t-30 78zM93 492q0 -19 10.5 -31t28.5 -12q19 0 30 12t11 31t-11.5 31.5t-29.5 12.5t-28.5 -12.5t-10.5 -31.5z" />
    <glyph glyph-name="plusminus" unicode="&#xb1;" horiz-adv-x="498" 
d="M45 359h165v124h74v-124h169v-74h-169v-138h-74v138h-165v74zM453 24h-408v75h408v-75z" />
    <glyph glyph-name="twosuperior" unicode="&#xb2;" horiz-adv-x="333" 
d="M307 313v-77h-278v64q95 68 129.5 102t34.5 68q0 41 -40 41q-21 0 -35 -15.5t-14 -45.5l-83 32q2 48 38.5 81.5t103.5 33.5q59 0 96 -29.5t37 -84.5q0 -100 -140 -166v-4h151z" />
    <glyph glyph-name="threesuperior" unicode="&#xb3;" horiz-adv-x="325" 
d="M198 416v-2q99 -7 99 -89q0 -46 -38.5 -71t-108.5 -25q-56 0 -94 21.5t-46 59.5l81 33q11 -43 60 -43q42 0 42 33q0 46 -89 48v56q83 4 83 48q0 34 -34 34q-43 0 -47 -39l-80 30q7 41 44 64t91 23q56 0 89.5 -23.5t33.5 -69.5q0 -73 -86 -88z" />
    <glyph glyph-name="acute" unicode="&#xb4;" horiz-adv-x="399" 
d="M203 526h-122l70 153h168z" />
    <glyph glyph-name="mu" unicode="&#xb5;" horiz-adv-x="540" 
d="M360 0l-16 87q-22 -99 -112 -99q-21 0 -36 10v-201h-134v665h134v-283q0 -83 62 -83q33 0 58.5 26.5t25.5 81.5v258h134v-462h-116z" />
    <glyph glyph-name="paragraph" unicode="&#xb6;" horiz-adv-x="560" 
d="M444 480v-490q0 -80 -44.5 -116.5t-118.5 -36.5q-63 0 -112 27l24 116q35 -29 77 -29q46 0 46 59v164h-49q-106 0 -167.5 50.5t-61.5 150.5q0 214 254 214h231v-109h-79z" />
    <glyph glyph-name="periodcentered" unicode="&#xb7;" horiz-adv-x="292" 
d="M60 264q0 37 24.5 62.5t59.5 25.5q38 0 63 -25t25 -63q0 -36 -25 -60t-63 -24q-35 0 -59.5 24.5t-24.5 59.5z" />
    <glyph glyph-name="periodcentered" unicode="&#x22c5;" horiz-adv-x="292" 
d="M60 264q0 37 24.5 62.5t59.5 25.5q38 0 63 -25t25 -63q0 -36 -25 -60t-63 -24q-35 0 -59.5 24.5t-24.5 59.5z" />
    <glyph glyph-name="cedilla" unicode="&#xb8;" horiz-adv-x="373" 
d="M293 -118q0 -45 -32 -69t-83 -24q-72 0 -105 36l25 64q31 -35 65 -35q30 0 30 26q0 34 -51 40l11 98h57l-5 -54q88 -6 88 -82z" />
    <glyph glyph-name="onesuperior" unicode="&#xb9;" horiz-adv-x="315" 
d="M297 236h-260v73h85v190l-94 -8v77l192 21v-280h77v-73z" />
    <glyph glyph-name="ordmasculine" unicode="&#xba;" horiz-adv-x="398" 
d="M199 279q-72 0 -115 42.5t-43 119.5t42.5 118.5t115.5 41.5t115.5 -41.5t42.5 -118.5t-43 -119.5t-115 -42.5zM199 528q-52 0 -52 -88q0 -89 52 -89t52 89q0 88 -52 88z" />
    <glyph glyph-name="guillemotright" unicode="&#xbb;" horiz-adv-x="549" 
d="M175 233v4q-21 8 -51 41l-93 103l66 67l199 -212l-199 -212l-67 65l93 104q13 15 26 25t19 12zM399 233v4q-21 8 -51 41l-93 103l66 67l198 -212l-198 -212l-67 65l93 104q13 15 26 25t19 12z" />
    <glyph glyph-name="onequarter" unicode="&#xbc;" horiz-adv-x="870" 
d="M308 236h-260v73h85v190l-94 -8v77l192 21v-280h77v-73zM242 0l305 589h81l-307 -589h-79zM705 0v70h-174v67l177 216h96v-212h50v-71h-50v-70h-99zM707 139v65l5 71h-4q-9 -25 -29 -51l-32 -40q-10 -12 -21.5 -23.5t-18.5 -17.5l-7 -6v-4q21 6 56 6h51z" />
    <glyph glyph-name="onehalf" unicode="&#xbd;" horiz-adv-x="870" 
d="M308 236h-260v73h85v190l-94 -8v77l192 21v-280h77v-73zM242 0l305 589h81l-307 -589h-79zM827 77v-77h-278v64q95 68 129.5 102t34.5 68q0 41 -40 41q-21 0 -35 -15.5t-14 -45.5l-83 32q2 48 38.5 81.5t103.5 33.5q59 0 96 -29.5t37 -84.5q0 -100 -140 -166v-4h151z" />
    <glyph glyph-name="threequarters" unicode="&#xbe;" horiz-adv-x="870" 
d="M220 416v-2q99 -7 99 -89q0 -46 -38.5 -71t-108.5 -25q-56 0 -94 21.5t-46 59.5l81 33q11 -43 60 -43q42 0 42 33q0 46 -89 48v56q83 4 83 48q0 34 -34 34q-43 0 -47 -39l-80 30q7 41 44 64t91 23q56 0 89.5 -23.5t33.5 -69.5q0 -73 -86 -88zM242 0l305 589h81l-307 -589
h-79zM705 0v70h-174v67l177 216h96v-212h50v-71h-50v-70h-99zM707 139v65l5 71h-4q-9 -25 -29 -51l-32 -40q-10 -12 -21.5 -23.5t-18.5 -17.5l-7 -6v-4q21 6 56 6h51z" />
    <glyph glyph-name="questiondown" unicode="&#xbf;" horiz-adv-x="439" 
d="M314 69l125 -45q-36 -163 -221 -163q-93 0 -151.5 51t-58.5 133q0 46 16 80.5t43.5 52.5t57 26.5t63.5 8.5v61h116v-134h-48q-55 0 -80.5 -19t-25.5 -66q0 -37 21 -57t56 -20q79 0 87 91zM329 390q0 -35 -24 -56.5t-59 -21.5q-36 0 -60 21.5t-24 56.5t23.5 56t60.5 21
q35 0 59 -21t24 -56z" />
    <glyph glyph-name="Agrave" unicode="&#xc0;" horiz-adv-x="616" 
d="M460 0l-43 123h-223l-42 -123h-142l213 589h168l215 -589h-146zM255 303l-23 -67h145l-24 66q-15 43 -26.5 85t-15.5 63l-4 20h-4q-15 -72 -48 -167zM376 647h-122l-110 143h168z" />
    <glyph glyph-name="Aacute" unicode="&#xc1;" horiz-adv-x="616" 
d="M460 0l-43 123h-223l-42 -123h-142l213 589h168l215 -589h-146zM255 303l-23 -67h145l-24 66q-15 43 -26.5 85t-15.5 63l-4 20h-4q-15 -72 -48 -167zM361 647h-123l64 143h168z" />
    <glyph glyph-name="Acircumflex" unicode="&#xc2;" horiz-adv-x="616" 
d="M460 0l-43 123h-223l-42 -123h-142l213 589h168l215 -589h-146zM255 303l-23 -67h145l-24 66q-15 43 -26.5 85t-15.5 63l-4 20h-4q-15 -72 -48 -167zM264 792h85l134 -145h-124l-31 31q-8 8 -13 15.5t-6 10.5l-1 4h-4q-3 -12 -20 -30l-30 -31h-125z" />
    <glyph glyph-name="Atilde" unicode="&#xc3;" horiz-adv-x="616" 
d="M460 0l-43 123h-223l-42 -123h-142l213 589h168l215 -589h-146zM255 303l-23 -67h145l-24 66q-15 43 -26.5 85t-15.5 63l-4 20h-4q-15 -72 -48 -167zM382 649q-37 0 -74 22q-43 25 -58 25q-16 0 -25.5 -12.5t-5.5 -36.5h-74q-28 58 0 107.5t87 49.5q31 0 68 -21
q48 -27 62 -27q32 0 26 46h78q26 -61 1 -107t-85 -46z" />
    <glyph glyph-name="Adieresis" unicode="&#xc4;" horiz-adv-x="616" 
d="M460 0l-43 123h-223l-42 -123h-142l213 589h168l215 -589h-146zM255 303l-23 -67h145l-24 66q-15 43 -26.5 85t-15.5 63l-4 20h-4q-15 -72 -48 -167zM121 723q0 36 21 55.5t53 19.5q34 0 55 -19.5t21 -55.5q0 -35 -21 -55t-55 -20q-31 0 -52.5 20t-21.5 55zM339 723
q0 36 21 55.5t53 19.5q34 0 55 -19.5t21 -55.5t-21.5 -55.5t-54.5 -19.5q-32 0 -53 20t-21 55z" />
    <glyph glyph-name="Aring" unicode="&#xc5;" horiz-adv-x="616" 
d="M460 0l-43 123h-223l-42 -123h-142l213 589h168l215 -589h-146zM255 303l-23 -67h145l-24 66q-15 43 -26.5 85t-15.5 63l-4 20h-4q-15 -72 -48 -167zM305 630q-54 0 -84.5 32t-30.5 80q0 45 32 76.5t83 31.5t83 -31.5t32 -76.5q0 -48 -30.5 -80t-84.5 -32zM305 790
q-23 0 -36 -13.5t-13 -35.5q0 -20 13 -34t36 -14t36 14t13 34q0 22 -13 35.5t-36 13.5z" />
    <glyph glyph-name="AE" unicode="&#xc6;" horiz-adv-x="876" 
d="M826 0h-395v123h-203l-77 -123h-149l351 589h473v-118h-259v-117h229v-113h-229v-123h259v-118zM433 490l-146 -254h144v94q0 45 1.5 85t3.5 57l1 18h-4z" />
    <glyph glyph-name="Ccedilla" unicode="&#xc7;" horiz-adv-x="586" 
d="M434 -118q0 -45 -32 -69t-83 -24q-72 0 -105 36l25 64q31 -35 65 -35q30 0 30 26q0 34 -51 40l7 69q-114 7 -181.5 87t-67.5 219q0 146 76 226t212 80q172 0 240 -149l-131 -64q-29 93 -114 93q-67 0 -105 -50.5t-38 -138.5t36.5 -136t108.5 -48q85 0 123 84l115 -69
q-37 -63 -87.5 -95.5t-128.5 -38.5l-2 -25q88 -6 88 -82z" />
    <glyph glyph-name="Egrave" unicode="&#xc8;" horiz-adv-x="522" 
d="M472 118v-118h-395v589h395v-118h-259v-117h228v-113h-228v-123h259zM343 647h-122l-110 143h168z" />
    <glyph glyph-name="Eacute" unicode="&#xc9;" horiz-adv-x="522" 
d="M472 118v-118h-395v589h395v-118h-259v-117h228v-113h-228v-123h259zM328 647h-123l64 143h168z" />
    <glyph glyph-name="Ecircumflex" unicode="&#xca;" horiz-adv-x="522" 
d="M472 118v-118h-395v589h395v-118h-259v-117h228v-113h-228v-123h259zM233 792h85l134 -145h-124l-31 31q-8 8 -13 15.5t-6 10.5l-1 4h-4q-3 -12 -20 -30l-30 -31h-125z" />
    <glyph glyph-name="Edieresis" unicode="&#xcb;" horiz-adv-x="522" 
d="M472 118v-118h-395v589h395v-118h-259v-117h228v-113h-228v-123h259zM88 723q0 36 21 55.5t53 19.5q34 0 55 -19.5t21 -55.5q0 -35 -21 -55t-55 -20q-31 0 -52.5 20t-21.5 55zM306 723q0 36 21 55.5t53 19.5q34 0 55 -19.5t21 -55.5t-21.5 -55.5t-54.5 -19.5
q-32 0 -53 20t-21 55z" />
    <glyph glyph-name="Igrave" unicode="&#xcc;" horiz-adv-x="290" 
d="M77 589h136v-589h-136v589zM211 647h-122l-110 143h168z" />
    <glyph glyph-name="Iacute" unicode="&#xcd;" horiz-adv-x="290" 
d="M77 589h136v-589h-136v589zM201 647h-123l64 143h168z" />
    <glyph glyph-name="Icircumflex" unicode="&#xce;" horiz-adv-x="290" 
d="M77 589h136v-589h-136v589zM103 792h85l134 -145h-124l-31 31q-8 8 -13 15.5t-6 10.5l-1 4h-4q-3 -12 -20 -30l-30 -31h-125z" />
    <glyph glyph-name="Idieresis" unicode="&#xcf;" horiz-adv-x="290" 
d="M77 589h136v-589h-136v589zM-42 723q0 36 21 55.5t53 19.5q34 0 55 -19.5t21 -55.5q0 -35 -21 -55t-55 -20q-31 0 -52.5 20t-21.5 55zM176 723q0 36 21 55.5t53 19.5q34 0 55 -19.5t21 -55.5t-21.5 -55.5t-54.5 -19.5q-32 0 -53 20t-21 55z" />
    <glyph glyph-name="Eth" unicode="&#xd0;" horiz-adv-x="622" 
d="M285 0h-208v242h-65v110h65v237h217q131 0 209 -70t78 -218q0 -155 -80 -228t-216 -73zM213 115h59q83 0 125 41t42 137q0 100 -40.5 140.5t-118.5 40.5h-67v-122h93v-110h-93v-127z" />
    <glyph glyph-name="Ntilde" unicode="&#xd1;" horiz-adv-x="676" 
d="M205 589l208 -285q15 -20 27 -39.5t17 -29.5l5 -10h4q-3 50 -3 125v239h136v-589h-124l-208 280q-17 22 -31 44t-20 32l-5 11h-4q6 -48 6 -133v-234h-136v589h128zM414 649q-37 0 -74 22q-43 25 -58 25q-16 0 -25.5 -12.5t-5.5 -36.5h-74q-28 58 0 107.5t87 49.5
q31 0 68 -21q48 -27 62 -27q32 0 26 46h78q26 -61 1 -107t-85 -46z" />
    <glyph glyph-name="Ograve" unicode="&#xd2;" horiz-adv-x="641" 
d="M320 -12q-132 0 -205.5 79.5t-73.5 226.5t73.5 227t205.5 80t206 -80t74 -227t-74 -226.5t-206 -79.5zM320 480q-68 0 -103 -49.5t-35 -138.5t35 -138t103 -49q69 0 104 49t35 138t-35 138.5t-104 49.5zM389 647h-122l-110 143h168z" />
    <glyph glyph-name="Oacute" unicode="&#xd3;" horiz-adv-x="641" 
d="M320 -12q-132 0 -205.5 79.5t-73.5 226.5t73.5 227t205.5 80t206 -80t74 -227t-74 -226.5t-206 -79.5zM320 480q-68 0 -103 -49.5t-35 -138.5t35 -138t103 -49q69 0 104 49t35 138t-35 138.5t-104 49.5zM374 647h-123l64 143h168z" />
    <glyph glyph-name="Ocircumflex" unicode="&#xd4;" horiz-adv-x="641" 
d="M320 -12q-132 0 -205.5 79.5t-73.5 226.5t73.5 227t205.5 80t206 -80t74 -227t-74 -226.5t-206 -79.5zM320 480q-68 0 -103 -49.5t-35 -138.5t35 -138t103 -49q69 0 104 49t35 138t-35 138.5t-104 49.5zM279 792h85l134 -145h-124l-31 31q-8 8 -13 15.5t-6 10.5l-1 4h-4
q-3 -12 -20 -30l-30 -31h-125z" />
    <glyph glyph-name="Otilde" unicode="&#xd5;" horiz-adv-x="641" 
d="M320 -12q-132 0 -205.5 79.5t-73.5 226.5t73.5 227t205.5 80t206 -80t74 -227t-74 -226.5t-206 -79.5zM320 480q-68 0 -103 -49.5t-35 -138.5t35 -138t103 -49q69 0 104 49t35 138t-35 138.5t-104 49.5zM397 649q-37 0 -74 22q-43 25 -58 25q-16 0 -25.5 -12.5
t-5.5 -36.5h-74q-28 58 0 107.5t87 49.5q31 0 68 -21q48 -27 62 -27q32 0 26 46h78q26 -61 1 -107t-85 -46z" />
    <glyph glyph-name="Odieresis" unicode="&#xd6;" horiz-adv-x="641" 
d="M320 -12q-132 0 -205.5 79.5t-73.5 226.5t73.5 227t205.5 80t206 -80t74 -227t-74 -226.5t-206 -79.5zM320 480q-68 0 -103 -49.5t-35 -138.5t35 -138t103 -49q69 0 104 49t35 138t-35 138.5t-104 49.5zM134 723q0 36 21 55.5t53 19.5q34 0 55 -19.5t21 -55.5
q0 -35 -21 -55t-55 -20q-31 0 -52.5 20t-21.5 55zM352 723q0 36 21 55.5t53 19.5q34 0 55 -19.5t21 -55.5t-21.5 -55.5t-54.5 -19.5q-32 0 -53 20t-21 55z" />
    <glyph glyph-name="multiply" unicode="&#xd7;" horiz-adv-x="460" 
d="M45 120l129 129l-125 126l52 52l126 -124l131 131l54 -53l-133 -132l136 -135l-53 -53l-135 136l-129 -130z" />
    <glyph glyph-name="Oslash" unicode="&#xd8;" horiz-adv-x="641" 
d="M91 -12l-46 40l53 60q-57 77 -57 206q0 147 73.5 227t205.5 80q110 0 182 -58l47 54l48 -40l-53 -59q56 -79 56 -204q0 -147 -74 -226.5t-206 -79.5q-110 0 -180 56zM458 292q0 52 -13 94l-218 -245q34 -36 93 -36q68 0 103 49t35 138zM320 480q-68 0 -102.5 -49.5
t-34.5 -138.5q0 -54 12 -94l218 245q-35 37 -93 37z" />
    <glyph glyph-name="Ugrave" unicode="&#xd9;" horiz-adv-x="608" 
d="M412 589h135v-392q0 -111 -67 -160t-176 -49t-176 49t-67 160v392h136v-354q0 -68 23.5 -101t83.5 -33q61 0 84.5 33.5t23.5 101.5v353zM372 647h-122l-110 143h168z" />
    <glyph glyph-name="Uacute" unicode="&#xda;" horiz-adv-x="608" 
d="M412 589h135v-392q0 -111 -67 -160t-176 -49t-176 49t-67 160v392h136v-354q0 -68 23.5 -101t83.5 -33q61 0 84.5 33.5t23.5 101.5v353zM357 647h-123l64 143h168z" />
    <glyph glyph-name="Ucircumflex" unicode="&#xdb;" horiz-adv-x="608" 
d="M412 589h135v-392q0 -111 -67 -160t-176 -49t-176 49t-67 160v392h136v-354q0 -68 23.5 -101t83.5 -33q61 0 84.5 33.5t23.5 101.5v353zM262 792h85l134 -145h-124l-31 31q-8 8 -13 15.5t-6 10.5l-1 4h-4q-3 -12 -20 -30l-30 -31h-125z" />
    <glyph glyph-name="Udieresis" unicode="&#xdc;" horiz-adv-x="608" 
d="M412 589h135v-392q0 -111 -67 -160t-176 -49t-176 49t-67 160v392h136v-354q0 -68 23.5 -101t83.5 -33q61 0 84.5 33.5t23.5 101.5v353zM117 723q0 36 21 55.5t53 19.5q34 0 55 -19.5t21 -55.5q0 -35 -21 -55t-55 -20q-31 0 -52.5 20t-21.5 55zM335 723q0 36 21 55.5
t53 19.5q34 0 55 -19.5t21 -55.5t-21.5 -55.5t-54.5 -19.5q-32 0 -53 20t-21 55z" />
    <glyph glyph-name="Yacute" unicode="&#xdd;" horiz-adv-x="545" 
d="M164 589l69 -140q16 -35 27 -67t14 -46l3 -15h4q6 51 43 127l68 141h143l-188 -393v-196h-136v196l-201 393h154zM325 647h-123l64 143h168z" />
    <glyph glyph-name="Thorn" unicode="&#xde;" horiz-adv-x="523" 
d="M213 387v-165h70q44 0 63.5 19t19.5 60q0 46 -20 66t-63 20h-70zM213 0h-136v589h136v-89h74q112 0 163 -47.5t51 -146.5q0 -93 -52.5 -144t-148.5 -51h-87v-111z" />
    <glyph glyph-name="germandbls" unicode="&#xdf;" horiz-adv-x="580" 
d="M63 0v414q0 262 247 262q96 0 148 -46t52 -120q0 -120 -114 -137v-4q74 -6 113 -52.5t39 -128.5q0 -94 -50 -147t-143 -53q-87 0 -126 56l33 101q36 -51 87 -51q34 0 51 23.5t17 77.5q0 116 -117 116h-54v107h59q79 0 79 73q0 75 -85 75q-102 0 -102 -147v-419h-134z" />
    <glyph glyph-name="agrave" unicode="&#xe0;" horiz-adv-x="501" 
d="M289 145v47q-127 4 -127 -63q0 -21 13.5 -33.5t37.5 -12.5q30 0 53 15.5t23 46.5zM421 320v-180q0 -42 34 -42q13 0 29 7v-97q-27 -17 -76 -17q-88 0 -110 73q-28 -76 -134 -76q-62 0 -99 34t-37 93q0 79 65 117.5t196 31.5v44q0 64 -54 64q-55 0 -58 -68l-133 25
q5 71 59 107.5t137 36.5q88 0 134.5 -38.5t46.5 -114.5zM312 526h-121l-117 153h168z" />
    <glyph glyph-name="aacute" unicode="&#xe1;" horiz-adv-x="501" 
d="M289 145v47q-127 4 -127 -63q0 -21 13.5 -33.5t37.5 -12.5q30 0 53 15.5t23 46.5zM421 320v-180q0 -42 34 -42q13 0 29 7v-97q-27 -17 -76 -17q-88 0 -110 73q-28 -76 -134 -76q-62 0 -99 34t-37 93q0 79 65 117.5t196 31.5v44q0 64 -54 64q-55 0 -58 -68l-133 25
q5 71 59 107.5t137 36.5q88 0 134.5 -38.5t46.5 -114.5zM295 526h-122l70 153h168z" />
    <glyph glyph-name="acircumflex" unicode="&#xe2;" horiz-adv-x="501" 
d="M289 145v47q-127 4 -127 -63q0 -21 13.5 -33.5t37.5 -12.5q30 0 53 15.5t23 46.5zM421 320v-180q0 -42 34 -42q13 0 29 7v-97q-27 -17 -76 -17q-88 0 -110 73q-28 -76 -134 -76q-62 0 -99 34t-37 93q0 79 65 117.5t196 31.5v44q0 64 -54 64q-55 0 -58 -68l-133 25
q5 71 59 107.5t137 36.5q88 0 134.5 -38.5t46.5 -114.5zM195 683h84l135 -159h-123l-32 34q-8 9 -13 17.5t-6 12.5l-1 3h-4q-1 -12 -20 -33l-32 -34h-123z" />
    <glyph glyph-name="atilde" unicode="&#xe3;" horiz-adv-x="501" 
d="M289 145v47q-127 4 -127 -63q0 -21 13.5 -33.5t37.5 -12.5q30 0 53 15.5t23 46.5zM421 320v-180q0 -42 34 -42q13 0 29 7v-97q-27 -17 -76 -17q-88 0 -110 73q-28 -76 -134 -76q-62 0 -99 34t-37 93q0 79 65 117.5t196 31.5v44q0 64 -54 64q-55 0 -58 -68l-133 25
q5 71 59 107.5t137 36.5q88 0 134.5 -38.5t46.5 -114.5zM313 521q-36 0 -74 23q-45 25 -58 25q-16 0 -25.5 -12.5t-5.5 -36.5h-74q-28 57 0 106.5t87 49.5q33 0 68 -20q47 -28 62 -28q33 0 26 46h78q26 -61 1 -107t-85 -46z" />
    <glyph glyph-name="adieresis" unicode="&#xe4;" horiz-adv-x="501" 
d="M289 145v47q-127 4 -127 -63q0 -21 13.5 -33.5t37.5 -12.5q30 0 53 15.5t23 46.5zM421 320v-180q0 -42 34 -42q13 0 29 7v-97q-27 -17 -76 -17q-88 0 -110 73q-28 -76 -134 -76q-62 0 -99 34t-37 93q0 79 65 117.5t196 31.5v44q0 64 -54 64q-55 0 -58 -68l-133 25
q5 71 59 107.5t137 36.5q88 0 134.5 -38.5t46.5 -114.5zM56 596q0 36 21 55.5t53 19.5q34 0 55 -19.5t21 -55.5q0 -35 -21 -55t-55 -20q-31 0 -52.5 20t-21.5 55zM274 596q0 36 21 55.5t53 19.5q34 0 55 -19.5t21 -55.5t-21.5 -55.5t-54.5 -19.5q-32 0 -53 20t-21 55z" />
    <glyph glyph-name="aring" unicode="&#xe5;" horiz-adv-x="501" 
d="M289 145v47q-127 4 -127 -63q0 -21 13.5 -33.5t37.5 -12.5q30 0 53 15.5t23 46.5zM421 320v-180q0 -42 34 -42q13 0 29 7v-97q-27 -17 -76 -17q-88 0 -110 73q-28 -76 -134 -76q-62 0 -99 34t-37 93q0 79 65 117.5t196 31.5v44q0 64 -54 64q-55 0 -58 -68l-133 25
q5 71 59 107.5t137 36.5q88 0 134.5 -38.5t46.5 -114.5zM239 506q-54 0 -84.5 32t-30.5 80q0 45 32 77t83 32t83 -32t32 -77q0 -48 -30.5 -80t-84.5 -32zM239 667q-23 0 -36 -14t-13 -36q0 -20 13 -34t36 -14t36 14t13 34q0 22 -13 36t-36 14z" />
    <glyph glyph-name="ae" unicode="&#xe6;" horiz-adv-x="741" 
d="M513 91q61 0 80 63l115 -39q-34 -127 -198 -127q-109 0 -168 73q-38 -73 -158 -73q-71 0 -113.5 34.5t-42.5 97.5q0 155 264 156q2 16 8 39q-2 28 -19.5 42.5t-44.5 14.5q-56 0 -59 -68l-133 25q5 70 58 107t132 37q92 0 133 -47q56 47 145 47q94 0 144.5 -59t50.5 -152
q0 -28 -7 -61h-284q2 -53 26.5 -81.5t70.5 -28.5zM419 276h159q1 5 1 15q0 35 -19 59t-53 24q-79 0 -88 -98zM213 83q71 0 87 56q-9 33 -10 62q-128 -1 -128 -72q0 -21 13.5 -33.5t37.5 -12.5z" />
    <glyph glyph-name="ccedilla" unicode="&#xe7;" horiz-adv-x="470" 
d="M370 -118q0 -45 -32 -69t-83 -24q-72 0 -105 36l25 64q31 -35 65 -35q30 0 30 26q0 34 -51 40l8 70q-90 8 -142 70.5t-52 168.5q0 114 61 179t163 65q82 0 132 -41t55 -111l-113 -31q-11 78 -75 78q-44 0 -68.5 -36.5t-24.5 -100.5q0 -66 25 -103t70 -37q59 0 75 71
l118 -38q-12 -61 -56 -95t-111 -40l-2 -25q88 -6 88 -82z" />
    <glyph glyph-name="egrave" unicode="&#xe8;" horiz-adv-x="488" 
d="M259 91q62 0 81 63l114 -39q-17 -66 -70 -96.5t-128 -30.5q-101 0 -162 63t-61 173q0 118 60 183.5t165 65.5q95 0 145 -56t50 -149q0 -32 -6 -60h-285q2 -54 27 -85.5t70 -31.5zM166 282h159q1 6 1 16q0 34 -19 55t-54 21q-37 0 -60 -25.5t-27 -66.5zM316 526h-121
l-117 153h168z" />
    <glyph glyph-name="eacute" unicode="&#xe9;" horiz-adv-x="488" 
d="M259 91q62 0 81 63l114 -39q-17 -66 -70 -96.5t-128 -30.5q-101 0 -162 63t-61 173q0 118 60 183.5t165 65.5q95 0 145 -56t50 -149q0 -32 -6 -60h-285q2 -54 27 -85.5t70 -31.5zM166 282h159q1 6 1 16q0 34 -19 55t-54 21q-37 0 -60 -25.5t-27 -66.5zM298 526h-122
l70 153h168z" />
    <glyph glyph-name="ecircumflex" unicode="&#xea;" horiz-adv-x="488" 
d="M259 91q62 0 81 63l114 -39q-17 -66 -70 -96.5t-128 -30.5q-101 0 -162 63t-61 173q0 118 60 183.5t165 65.5q95 0 145 -56t50 -149q0 -32 -6 -60h-285q2 -54 27 -85.5t70 -31.5zM166 282h159q1 6 1 16q0 34 -19 55t-54 21q-37 0 -60 -25.5t-27 -66.5zM211 683h84
l135 -159h-123l-32 34q-8 9 -13 17.5t-6 12.5l-1 3h-4q-1 -12 -20 -33l-32 -34h-123z" />
    <glyph glyph-name="edieresis" unicode="&#xeb;" horiz-adv-x="488" 
d="M259 91q62 0 81 63l114 -39q-17 -66 -70 -96.5t-128 -30.5q-101 0 -162 63t-61 173q0 118 60 183.5t165 65.5q95 0 145 -56t50 -149q0 -32 -6 -60h-285q2 -54 27 -85.5t70 -31.5zM166 282h159q1 6 1 16q0 34 -19 55t-54 21q-37 0 -60 -25.5t-27 -66.5zM71 596
q0 36 21 55.5t53 19.5q34 0 55 -19.5t21 -55.5q0 -35 -21 -55t-55 -20q-31 0 -52.5 20t-21.5 55zM289 596q0 36 21 55.5t53 19.5q34 0 55 -19.5t21 -55.5t-21.5 -55.5t-54.5 -19.5q-32 0 -53 20t-21 55z" />
    <glyph glyph-name="igrave" unicode="&#xec;" horiz-adv-x="260" 
d="M196 526h-121l-117 153h168zM63 462h134v-462h-134v462z" />
    <glyph glyph-name="iacute" unicode="&#xed;" horiz-adv-x="260" 
d="M185 526h-122l70 153h168zM63 462h134v-462h-134v462z" />
    <glyph glyph-name="icircumflex" unicode="&#xee;" horiz-adv-x="260" 
d="M63 462h134v-462h-134v462zM88 683h84l135 -159h-123l-32 34q-8 9 -13 17.5t-6 12.5l-1 3h-4q-1 -12 -20 -33l-32 -34h-123z" />
    <glyph glyph-name="idieresis" unicode="&#xef;" horiz-adv-x="260" 
d="M-57 596q0 36 21 55.5t53 19.5q34 0 55 -19.5t21 -55.5q0 -35 -21 -55t-55 -20q-31 0 -52.5 20t-21.5 55zM161 596q0 36 21 55.5t53 19.5q34 0 55 -19.5t21 -55.5t-21.5 -55.5t-54.5 -19.5q-32 0 -53 20t-21 55zM63 462h134v-462h-134v462z" />
    <glyph glyph-name="eth" unicode="&#xf0;" horiz-adv-x="518" 
d="M112 484l-12 51l118 24q-51 41 -109 71l133 49q69 -41 109 -79l106 25l17 -51l-84 -19q95 -124 95 -288q0 -139 -60.5 -207t-167.5 -68q-105 0 -164.5 59.5t-59.5 178.5q0 114 57.5 173t134.5 59q76 0 120 -60h4q-29 66 -84 116zM351 226q0 135 -93 135q-92 0 -92 -135
q0 -132 93 -132q92 0 92 132z" />
    <glyph glyph-name="ntilde" unicode="&#xf1;" horiz-adv-x="535" 
d="M177 462l16 -89q36 100 148 100q58 0 97 -36.5t39 -109.5v-327h-134v277q0 84 -62 84q-84 0 -84 -107v-254h-134v462h114zM347 521q-36 0 -74 23q-45 25 -58 25q-16 0 -25.5 -12.5t-5.5 -36.5h-74q-28 57 0 106.5t87 49.5q33 0 68 -20q47 -28 62 -28q33 0 26 46h78
q26 -61 1 -107t-85 -46z" />
    <glyph glyph-name="ograve" unicode="&#xf2;" horiz-adv-x="513" 
d="M257 -12q-103 0 -163.5 64.5t-60.5 179.5q0 116 60.5 178.5t163.5 62.5t163 -62.5t60 -178.5q0 -115 -60.5 -179.5t-162.5 -64.5zM257 366q-92 0 -92 -134q0 -72 22.5 -106t69.5 -34q91 0 91 140q0 134 -91 134zM326 526h-121l-117 153h168z" />
    <glyph glyph-name="oacute" unicode="&#xf3;" horiz-adv-x="513" 
d="M257 -12q-103 0 -163.5 64.5t-60.5 179.5q0 116 60.5 178.5t163.5 62.5t163 -62.5t60 -178.5q0 -115 -60.5 -179.5t-162.5 -64.5zM257 366q-92 0 -92 -134q0 -72 22.5 -106t69.5 -34q91 0 91 140q0 134 -91 134zM309 526h-122l70 153h168z" />
    <glyph glyph-name="ocircumflex" unicode="&#xf4;" horiz-adv-x="513" 
d="M257 -12q-103 0 -163.5 64.5t-60.5 179.5q0 116 60.5 178.5t163.5 62.5t163 -62.5t60 -178.5q0 -115 -60.5 -179.5t-162.5 -64.5zM257 366q-92 0 -92 -134q0 -72 22.5 -106t69.5 -34q91 0 91 140q0 134 -91 134zM215 683h84l135 -159h-123l-32 34q-8 9 -13 17.5t-6 12.5
l-1 3h-4q-1 -12 -20 -33l-32 -34h-123z" />
    <glyph glyph-name="otilde" unicode="&#xf5;" horiz-adv-x="513" 
d="M257 -12q-103 0 -163.5 64.5t-60.5 179.5q0 116 60.5 178.5t163.5 62.5t163 -62.5t60 -178.5q0 -115 -60.5 -179.5t-162.5 -64.5zM257 366q-92 0 -92 -134q0 -72 22.5 -106t69.5 -34q91 0 91 140q0 134 -91 134zM334 521q-36 0 -74 23q-45 25 -58 25q-16 0 -25.5 -12.5
t-5.5 -36.5h-74q-28 57 0 106.5t87 49.5q33 0 68 -20q47 -28 62 -28q33 0 26 46h78q26 -61 1 -107t-85 -46z" />
    <glyph glyph-name="odieresis" unicode="&#xf6;" horiz-adv-x="513" 
d="M257 -12q-103 0 -163.5 64.5t-60.5 179.5q0 116 60.5 178.5t163.5 62.5t163 -62.5t60 -178.5q0 -115 -60.5 -179.5t-162.5 -64.5zM257 366q-92 0 -92 -134q0 -72 22.5 -106t69.5 -34q91 0 91 140q0 134 -91 134zM70 596q0 36 21 55.5t53 19.5q34 0 55 -19.5t21 -55.5
q0 -35 -21 -55t-55 -20q-31 0 -52.5 20t-21.5 55zM288 596q0 36 21 55.5t53 19.5q34 0 55 -19.5t21 -55.5t-21.5 -55.5t-54.5 -19.5q-32 0 -53 20t-21 55z" />
    <glyph glyph-name="divide" unicode="&#xf7;" horiz-adv-x="498" 
d="M453 211h-408v74h408v-74zM189 85q0 23 16 40t39 17t40 -17t17 -40q0 -22 -17 -38.5t-40 -16.5t-39 16t-16 39zM189 405q0 24 16 40.5t39 16.5t40 -16.5t17 -40.5q0 -23 -17 -39t-40 -16t-39 16t-16 39z" />
    <glyph glyph-name="oslash" unicode="&#xf8;" horiz-adv-x="513" 
d="M73 -15l-44 41l46 49q-42 62 -42 157q0 116 60.5 178.5t163.5 62.5q86 0 144 -46l43 47l47 -41l-49 -52q38 -62 38 -149q0 -115 -60.5 -179.5t-162.5 -64.5q-84 0 -141 43zM257 366q-92 0 -92 -134q0 -34 4 -55l151 163q-23 26 -63 26zM348 232q0 24 -3 44l-150 -160
q23 -24 62 -24q91 0 91 140z" />
    <glyph glyph-name="ugrave" unicode="&#xf9;" horiz-adv-x="531" 
d="M352 0l-16 86q-25 -98 -143 -98q-139 0 -139 149v325h134v-287q0 -86 63 -86q37 0 60 31t23 94v248h134v-462h-116zM330 526h-121l-117 153h168z" />
    <glyph glyph-name="uacute" unicode="&#xfa;" horiz-adv-x="531" 
d="M352 0l-16 86q-25 -98 -143 -98q-139 0 -139 149v325h134v-287q0 -86 63 -86q37 0 60 31t23 94v248h134v-462h-116zM313 526h-122l70 153h168z" />
    <glyph glyph-name="ucircumflex" unicode="&#xfb;" horiz-adv-x="531" 
d="M352 0l-16 86q-25 -98 -143 -98q-139 0 -139 149v325h134v-287q0 -86 63 -86q37 0 60 31t23 94v248h134v-462h-116zM219 683h84l135 -159h-123l-32 34q-8 9 -13 17.5t-6 12.5l-1 3h-4q-1 -12 -20 -33l-32 -34h-123z" />
    <glyph glyph-name="udieresis" unicode="&#xfc;" horiz-adv-x="531" 
d="M352 0l-16 86q-25 -98 -143 -98q-139 0 -139 149v325h134v-287q0 -86 63 -86q37 0 60 31t23 94v248h134v-462h-116zM74 596q0 36 21 55.5t53 19.5q34 0 55 -19.5t21 -55.5q0 -35 -21 -55t-55 -20q-31 0 -52.5 20t-21.5 55zM292 596q0 36 21 55.5t53 19.5q34 0 55 -19.5
t21 -55.5t-21.5 -55.5t-54.5 -19.5q-32 0 -53 20t-21 55z" />
    <glyph glyph-name="yacute" unicode="&#xfd;" horiz-adv-x="484" 
d="M148 462l60 -210q12 -40 20 -77.5t10 -54.5l2 -17h4q6 59 33 148l64 211h141l-183 -503q-37 -100 -84.5 -133.5t-126.5 -33.5q-37 0 -83 11l20 118q27 -16 61 -16q32 0 52.5 15.5t34.5 53.5l-171 488h146zM295 526h-122l70 153h168z" />
    <glyph glyph-name="thorn" unicode="&#xfe;" 
d="M196 253v-64q0 -54 26.5 -79.5t61.5 -25.5q45 0 75 38t30 108q0 136 -96 136q-39 0 -68 -30t-29 -83zM197 61v-264h-134v871h134v-293q34 98 149 98q85 0 131.5 -60.5t46.5 -170.5q0 -116 -52.5 -185t-145.5 -69q-51 0 -85 21t-44 52z" />
    <glyph glyph-name="ydieresis" unicode="&#xff;" horiz-adv-x="484" 
d="M148 462l60 -210q12 -40 20 -77.5t10 -54.5l2 -17h4q6 59 33 148l64 211h141l-183 -503q-37 -100 -84.5 -133.5t-126.5 -33.5q-37 0 -83 11l20 118q27 -16 61 -16q32 0 52.5 15.5t34.5 53.5l-171 488h146zM57 596q0 36 21 55.5t53 19.5q34 0 55 -19.5t21 -55.5
q0 -35 -21 -55t-55 -20q-31 0 -52.5 20t-21.5 55zM275 596q0 36 21 55.5t53 19.5q34 0 55 -19.5t21 -55.5t-21.5 -55.5t-54.5 -19.5q-32 0 -53 20t-21 55z" />
    <glyph glyph-name="Amacron" unicode="&#x100;" horiz-adv-x="616" 
d="M460 0l-43 123h-223l-42 -123h-142l213 589h168l215 -589h-146zM255 303l-23 -67h145l-24 66q-15 43 -26.5 85t-15.5 63l-4 20h-4q-15 -72 -48 -167zM456 664h-301v108h301v-108z" />
    <glyph glyph-name="amacron" unicode="&#x101;" horiz-adv-x="501" 
d="M289 145v47q-127 4 -127 -63q0 -21 13.5 -33.5t37.5 -12.5q30 0 53 15.5t23 46.5zM421 320v-180q0 -42 34 -42q13 0 29 7v-97q-27 -17 -76 -17q-88 0 -110 73q-28 -76 -134 -76q-62 0 -99 34t-37 93q0 79 65 117.5t196 31.5v44q0 64 -54 64q-55 0 -58 -68l-133 25
q5 71 59 107.5t137 36.5q88 0 134.5 -38.5t46.5 -114.5zM387 539h-294v108h294v-108z" />
    <glyph glyph-name="Abreve" unicode="&#x102;" horiz-adv-x="616" 
d="M460 0l-43 123h-223l-42 -123h-142l213 589h168l215 -589h-146zM255 303l-23 -67h145l-24 66q-15 43 -26.5 85t-15.5 63l-4 20h-4q-15 -72 -48 -167zM305 642q-76 0 -113 39.5t-37 109.5h99q1 -28 12.5 -41.5t38.5 -13.5q28 0 39 13t12 42h99q0 -70 -37 -109.5
t-113 -39.5z" />
    <glyph glyph-name="abreve" unicode="&#x103;" horiz-adv-x="501" 
d="M289 145v47q-127 4 -127 -63q0 -21 13.5 -33.5t37.5 -12.5q30 0 53 15.5t23 46.5zM421 320v-180q0 -42 34 -42q13 0 29 7v-97q-27 -17 -76 -17q-88 0 -110 73q-28 -76 -134 -76q-62 0 -99 34t-37 93q0 79 65 117.5t196 31.5v44q0 64 -54 64q-55 0 -58 -68l-133 25
q5 71 59 107.5t137 36.5q88 0 134.5 -38.5t46.5 -114.5zM241 520q-75 0 -112.5 44t-37.5 114h99q1 -32 11.5 -47t39.5 -15q30 0 40 15t11 47h99q0 -70 -37.5 -114t-112.5 -44z" />
    <glyph glyph-name="Aogonek" unicode="&#x104;" horiz-adv-x="616" 
d="M323 -99q0 57 36.5 90.5t86.5 47.5l-29 84h-223l-42 -123h-142l213 589h168l215 -589h-82q-40 0 -66.5 -19t-26.5 -54q0 -24 13.5 -37.5t36.5 -13.5q35 0 65 29l29 -67q-45 -49 -124 -49q-54 0 -91 27.5t-37 84.5zM255 303l-23 -67h145l-24 66q-15 43 -26.5 85t-15.5 63
l-4 20h-4q-15 -72 -48 -167z" />
    <glyph glyph-name="aogonek" unicode="&#x105;" horiz-adv-x="501" 
d="M248 -99q0 80 80 117q-18 10 -30 46q-28 -76 -134 -76q-62 0 -99 34t-37 93q0 79 65 117.5t196 31.5v44q0 64 -54 64q-55 0 -58 -68l-133 25q5 71 59 107.5t137 36.5q88 0 134.5 -38.5t46.5 -114.5v-180q0 -42 34 -42q13 0 29 7v-97q-80 -16 -104 -36q-23 -18 -23 -45
q0 -24 13 -37.5t36 -13.5q36 0 65 29l29 -67q-43 -49 -124 -49q-54 0 -91 27.5t-37 84.5zM289 145v47q-127 4 -127 -63q0 -21 13.5 -33.5t37.5 -12.5q30 0 53 15.5t23 46.5z" />
    <glyph glyph-name="Cacute" unicode="&#x106;" horiz-adv-x="586" 
d="M449 192l115 -69q-41 -70 -99 -102.5t-154 -32.5q-122 0 -196 81t-74 226q0 146 76 226t212 80q172 0 240 -149l-131 -64q-29 93 -114 93q-67 0 -105 -50.5t-38 -138.5t36.5 -136t108.5 -48q85 0 123 84zM379 647h-123l64 143h168z" />
    <glyph glyph-name="cacute" unicode="&#x107;" horiz-adv-x="470" 
d="M333 162l118 -38q-12 -67 -65 -101.5t-130 -34.5q-102 0 -162.5 63.5t-60.5 177.5t61 179t163 65q82 0 132 -41t55 -111l-113 -31q-11 78 -75 78q-44 0 -68.5 -36.5t-24.5 -100.5q0 -66 25 -103t70 -37q59 0 75 71zM315 526h-122l70 153h168z" />
    <glyph glyph-name="Ccircumflex" unicode="&#x108;" horiz-adv-x="586" 
d="M449 192l115 -69q-41 -70 -99 -102.5t-154 -32.5q-122 0 -196 81t-74 226q0 146 76 226t212 80q172 0 240 -149l-131 -64q-29 93 -114 93q-67 0 -105 -50.5t-38 -138.5t36.5 -136t108.5 -48q85 0 123 84zM282 792h85l134 -145h-124l-31 31q-8 8 -13 15.5t-6 10.5l-1 4h-4
q-3 -12 -20 -30l-30 -31h-125z" />
    <glyph glyph-name="ccircumflex" unicode="&#x109;" horiz-adv-x="470" 
d="M333 162l118 -38q-12 -67 -65 -101.5t-130 -34.5q-102 0 -162.5 63.5t-60.5 177.5t61 179t163 65q82 0 132 -41t55 -111l-113 -31q-11 78 -75 78q-44 0 -68.5 -36.5t-24.5 -100.5q0 -66 25 -103t70 -37q59 0 75 71zM213 683h84l135 -159h-123l-32 34q-8 9 -13 17.5
t-6 12.5l-1 3h-4q-1 -12 -20 -33l-32 -34h-123z" />
    <glyph glyph-name="Cdotaccent" unicode="&#x10a;" horiz-adv-x="586" 
d="M449 192l115 -69q-41 -70 -99 -102.5t-154 -32.5q-122 0 -196 81t-74 226q0 146 76 226t212 80q172 0 240 -149l-131 -64q-29 93 -114 93q-67 0 -105 -50.5t-38 -138.5t36.5 -136t108.5 -48q85 0 123 84zM235 723q0 37 23 57.5t58 20.5q37 0 60.5 -20.5t23.5 -57.5
q0 -36 -23.5 -56t-60.5 -20q-35 0 -58 20t-23 56z" />
    <glyph glyph-name="cdotaccent" unicode="&#x10b;" horiz-adv-x="470" 
d="M333 162l118 -38q-12 -67 -65 -101.5t-130 -34.5q-102 0 -162.5 63.5t-60.5 177.5t61 179t163 65q82 0 132 -41t55 -111l-113 -31q-11 78 -75 78q-44 0 -68.5 -36.5t-24.5 -100.5q0 -66 25 -103t70 -37q59 0 75 71zM173 594q0 37 23 57.5t58 20.5q38 0 61 -20.5t23 -57.5
q0 -36 -23 -56t-61 -20q-35 0 -58 20.5t-23 55.5z" />
    <glyph glyph-name="Ccaron" unicode="&#x10c;" horiz-adv-x="586" 
d="M449 192l115 -69q-41 -70 -99 -102.5t-154 -32.5q-122 0 -196 81t-74 226q0 146 76 226t212 80q172 0 240 -149l-131 -64q-29 93 -114 93q-67 0 -105 -50.5t-38 -138.5t36.5 -136t108.5 -48q85 0 123 84zM357 646h-85l-135 145h125l30 -31q8 -8 13 -15.5t6 -10.5l1 -4h4
q3 12 20 30l31 31h124z" />
    <glyph glyph-name="ccaron" unicode="&#x10d;" horiz-adv-x="470" 
d="M333 162l118 -38q-12 -67 -65 -101.5t-130 -34.5q-102 0 -162.5 63.5t-60.5 177.5t61 179t163 65q82 0 132 -41t55 -111l-113 -31q-11 78 -75 78q-44 0 -68.5 -36.5t-24.5 -100.5q0 -66 25 -103t70 -37q59 0 75 71zM300 524h-84l-135 159h123l32 -35q8 -9 13 -17.5
t6 -12.5l1 -3h4q1 12 20 33l32 35h123z" />
    <glyph glyph-name="Dcaron" unicode="&#x10e;" horiz-adv-x="622" 
d="M213 115h59q83 0 125 41t42 137q0 100 -40.5 140.5t-118.5 40.5h-67v-359zM285 0h-208v589h217q131 0 209 -70t78 -218q0 -155 -80 -228t-216 -73zM331 646h-85l-135 145h125l30 -31q8 -8 13 -15.5t6 -10.5l1 -4h4q3 12 20 30l31 31h124z" />
    <glyph glyph-name="dcaron" unicode="&#x10f;" 
d="M703 692l-58 -178h-95l15 178h138zM361 192v86q0 48 -26 72t-64 24q-45 0 -74.5 -35.5t-29.5 -111.5q0 -65 27 -100.5t75 -35.5q37 0 64.5 26.5t27.5 74.5zM360 401v267h134v-668h-116l-17 80q-22 -92 -144 -92q-80 0 -132 61.5t-52 171.5q0 119 54 185.5t152 66.5
q45 0 78.5 -19.5t42.5 -52.5z" />
    <glyph glyph-name="Dcroat" unicode="&#x110;" horiz-adv-x="622" 
d="M285 0h-208v242h-65v110h65v237h217q131 0 209 -70t78 -218q0 -155 -80 -228t-216 -73zM213 115h59q83 0 125 41t42 137q0 100 -40.5 140.5t-118.5 40.5h-67v-122h93v-110h-93v-127z" />
    <glyph glyph-name="dcroat" unicode="&#x111;" 
d="M219 519v81h141v68h134v-68h70v-81h-70v-519h-116l-17 80q-22 -92 -144 -92q-80 0 -132 61.5t-52 171.5q0 119 54 185.5t152 66.5q45 0 78.5 -19.5t42.5 -52.5v118h-141zM361 192v86q0 48 -26 72t-64 24q-45 0 -74.5 -35.5t-29.5 -111.5q0 -65 27 -100.5t75 -35.5
q37 0 64.5 26.5t27.5 74.5z" />
    <glyph glyph-name="Emacron" unicode="&#x112;" horiz-adv-x="522" 
d="M472 118v-118h-395v589h395v-118h-259v-117h228v-113h-228v-123h259zM425 664h-301v108h301v-108z" />
    <glyph glyph-name="emacron" unicode="&#x113;" horiz-adv-x="488" 
d="M259 91q62 0 81 63l114 -39q-17 -66 -70 -96.5t-128 -30.5q-101 0 -162 63t-61 173q0 118 60 183.5t165 65.5q95 0 145 -56t50 -149q0 -32 -6 -60h-285q2 -54 27 -85.5t70 -31.5zM166 282h159q1 6 1 16q0 34 -19 55t-54 21q-37 0 -60 -25.5t-27 -66.5zM396 539h-294v108
h294v-108z" />
    <glyph glyph-name="Ebreve" unicode="&#x114;" horiz-adv-x="522" 
d="M472 118v-118h-395v589h395v-118h-259v-117h228v-113h-228v-123h259zM266 642q-76 0 -113 39.5t-37 109.5h99q1 -28 12.5 -41.5t38.5 -13.5q28 0 39 13t12 42h99q0 -70 -37 -109.5t-113 -39.5z" />
    <glyph glyph-name="ebreve" unicode="&#x115;" horiz-adv-x="488" 
d="M259 91q62 0 81 63l114 -39q-17 -66 -70 -96.5t-128 -30.5q-101 0 -162 63t-61 173q0 118 60 183.5t165 65.5q95 0 145 -56t50 -149q0 -32 -6 -60h-285q2 -54 27 -85.5t70 -31.5zM166 282h159q1 6 1 16q0 34 -19 55t-54 21q-37 0 -60 -25.5t-27 -66.5zM252 520
q-75 0 -112.5 44t-37.5 114h99q1 -32 11.5 -47t39.5 -15q30 0 40 15t11 47h99q0 -70 -37.5 -114t-112.5 -44z" />
    <glyph glyph-name="Edotaccent" unicode="&#x116;" horiz-adv-x="522" 
d="M472 118v-118h-395v589h395v-118h-259v-117h228v-113h-228v-123h259zM192 722q0 37 23 57.5t58 20.5q37 0 60.5 -20.5t23.5 -57.5q0 -36 -23.5 -56t-60.5 -20q-35 0 -58 20t-23 56z" />
    <glyph glyph-name="edotaccent" unicode="&#x117;" horiz-adv-x="488" 
d="M259 91q62 0 81 63l114 -39q-17 -66 -70 -96.5t-128 -30.5q-101 0 -162 63t-61 173q0 118 60 183.5t165 65.5q95 0 145 -56t50 -149q0 -32 -6 -60h-285q2 -54 27 -85.5t70 -31.5zM166 282h159q1 6 1 16q0 34 -19 55t-54 21q-37 0 -60 -25.5t-27 -66.5zM164 594
q0 37 23 57.5t58 20.5q38 0 61 -20.5t23 -57.5q0 -36 -23 -56t-61 -20q-35 0 -58 20.5t-23 55.5z" />
    <glyph glyph-name="Eogonek" unicode="&#x118;" horiz-adv-x="522" 
d="M472 118v-118h-35q-87 0 -87 -70q0 -54 50 -54q35 0 65 29l29 -67q-45 -49 -124 -49q-54 0 -91 27.5t-37 84.5q0 65 63 99h-228v589h395v-118h-259v-117h228v-113h-228v-123h259z" />
    <glyph glyph-name="eogonek" unicode="&#x119;" horiz-adv-x="488" 
d="M177 -99q0 54 36 90q-83 13 -131.5 74t-48.5 159q0 118 60 183.5t165 65.5q95 0 145 -56t50 -149q0 -32 -6 -60h-285q2 -54 27 -85.5t70 -31.5q62 0 81 63l114 -39q-21 -82 -108 -113q-61 -22 -61 -71q0 -55 50 -55q35 0 65 29l29 -67q-45 -49 -124 -49q-54 0 -91 27.5
t-37 84.5zM166 282h159q1 6 1 16q0 34 -19 55t-54 21q-37 0 -60 -25.5t-27 -66.5z" />
    <glyph glyph-name="Ecaron" unicode="&#x11a;" horiz-adv-x="522" 
d="M472 118v-118h-395v589h395v-118h-259v-117h228v-113h-228v-123h259zM310 646h-85l-135 145h125l30 -31q8 -8 13 -15.5t6 -10.5l1 -4h4q3 12 20 30l31 31h124z" />
    <glyph glyph-name="ecaron" unicode="&#x11b;" horiz-adv-x="488" 
d="M259 91q62 0 81 63l114 -39q-17 -66 -70 -96.5t-128 -30.5q-101 0 -162 63t-61 173q0 118 60 183.5t165 65.5q95 0 145 -56t50 -149q0 -32 -6 -60h-285q2 -54 27 -85.5t70 -31.5zM166 282h159q1 6 1 16q0 34 -19 55t-54 21q-37 0 -60 -25.5t-27 -66.5zM294 524h-84
l-135 159h123l32 -35q8 -9 13 -17.5t6 -12.5l1 -3h4q1 12 20 33l32 35h123z" />
    <glyph glyph-name="Gcircumflex" unicode="&#x11c;" horiz-adv-x="629" 
d="M318 314h254v-314h-84l-22 66q-44 -78 -162 -78q-120 0 -191.5 77t-71.5 227q0 147 76 228t212 81q87 0 148.5 -39t91.5 -110l-131 -64q-28 93 -114 93q-57 0 -100 -45t-43 -146q0 -86 35 -138.5t110 -52.5q57 0 86.5 24t29.5 63v20h-124v108zM289 792h85l134 -145h-124
l-31 31q-8 8 -13 15.5t-6 10.5l-1 4h-4q-3 -12 -20 -30l-30 -31h-125z" />
    <glyph glyph-name="gcircumflex" unicode="&#x11d;" horiz-adv-x="502" 
d="M240 473q79 0 131 -29q22 22 35 70l105 -35q-4 -32 -28.5 -55t-55.5 -32q21 -33 21 -82q0 -77 -59.5 -118t-152.5 -41q-40 0 -56 6q-22 -14 -22 -38q0 -28 37 -28h132q77 0 120 -37.5t43 -98.5q0 -47 -22.5 -81t-62.5 -52t-84.5 -25.5t-98.5 -7.5q-216 0 -216 116
q0 84 122 93q-33 2 -54 26t-21 56q0 29 20 54.5t58 36.5q-49 19 -72.5 52t-23.5 87q0 79 55.5 121t149.5 42zM129 -69q0 -53 108 -53q69 0 98.5 13t29.5 41q0 21 -13.5 30t-43.5 9h-114q-65 0 -65 -40zM170 310q0 -32 18 -51.5t52 -19.5q71 0 71 71q0 72 -71 72
q-70 -1 -70 -72zM217 691h84l135 -159h-123l-32 34q-8 9 -13 17.5t-6 12.5l-1 3h-4q-1 -12 -20 -33l-32 -34h-123z" />
    <glyph glyph-name="Gbreve" unicode="&#x11e;" horiz-adv-x="629" 
d="M318 314h254v-314h-84l-22 66q-44 -78 -162 -78q-120 0 -191.5 77t-71.5 227q0 147 76 228t212 81q87 0 148.5 -39t91.5 -110l-131 -64q-28 93 -114 93q-57 0 -100 -45t-43 -146q0 -86 35 -138.5t110 -52.5q57 0 86.5 24t29.5 63v20h-124v108zM330 642q-76 0 -113 39.5
t-37 109.5h99q1 -28 12.5 -41.5t38.5 -13.5q28 0 39 13t12 42h99q0 -70 -37 -109.5t-113 -39.5z" />
    <glyph glyph-name="gbreve" unicode="&#x11f;" horiz-adv-x="502" 
d="M240 473q79 0 131 -29q22 22 35 70l105 -35q-4 -32 -28.5 -55t-55.5 -32q21 -33 21 -82q0 -77 -59.5 -118t-152.5 -41q-40 0 -56 6q-22 -14 -22 -38q0 -28 37 -28h132q77 0 120 -37.5t43 -98.5q0 -47 -22.5 -81t-62.5 -52t-84.5 -25.5t-98.5 -7.5q-216 0 -216 116
q0 84 122 93q-33 2 -54 26t-21 56q0 29 20 54.5t58 36.5q-49 19 -72.5 52t-23.5 87q0 79 55.5 121t149.5 42zM129 -69q0 -53 108 -53q69 0 98.5 13t29.5 41q0 21 -13.5 30t-43.5 9h-114q-65 0 -65 -40zM170 310q0 -32 18 -51.5t52 -19.5q71 0 71 71q0 72 -71 72
q-70 -1 -70 -72zM244 520q-75 0 -112.5 44t-37.5 114h99q1 -32 11.5 -47t39.5 -15q30 0 40 15t11 47h99q0 -70 -37.5 -114t-112.5 -44z" />
    <glyph glyph-name="Gdotaccent" unicode="&#x120;" horiz-adv-x="629" 
d="M318 314h254v-314h-84l-22 66q-44 -78 -162 -78q-120 0 -191.5 77t-71.5 227q0 147 76 228t212 81q87 0 148.5 -39t91.5 -110l-131 -64q-28 93 -114 93q-57 0 -100 -45t-43 -146q0 -86 35 -138.5t110 -52.5q57 0 86.5 24t29.5 63v20h-124v108zM248 727q0 37 23 57.5
t58 20.5q37 0 60.5 -20.5t23.5 -57.5q0 -36 -23.5 -56t-60.5 -20q-35 0 -58 20t-23 56z" />
    <glyph glyph-name="gdotaccent" unicode="&#x121;" horiz-adv-x="502" 
d="M240 473q79 0 131 -29q22 22 35 70l105 -35q-4 -32 -28.5 -55t-55.5 -32q21 -33 21 -82q0 -77 -59.5 -118t-152.5 -41q-40 0 -56 6q-22 -14 -22 -38q0 -28 37 -28h132q77 0 120 -37.5t43 -98.5q0 -47 -22.5 -81t-62.5 -52t-84.5 -25.5t-98.5 -7.5q-216 0 -216 116
q0 84 122 93q-33 2 -54 26t-21 56q0 29 20 54.5t58 36.5q-49 19 -72.5 52t-23.5 87q0 79 55.5 121t149.5 42zM129 -69q0 -53 108 -53q69 0 98.5 13t29.5 41q0 21 -13.5 30t-43.5 9h-114q-65 0 -65 -40zM170 310q0 -32 18 -51.5t52 -19.5q71 0 71 71q0 72 -71 72
q-70 -1 -70 -72zM158 596q0 37 23 57.5t58 20.5q38 0 61 -20.5t23 -57.5q0 -36 -23 -56t-61 -20q-35 0 -58 20.5t-23 55.5z" />
    <glyph glyph-name="Gcommaaccent" unicode="&#x122;" horiz-adv-x="629" 
d="M318 314h254v-314h-84l-22 66q-44 -78 -162 -78q-120 0 -191.5 77t-71.5 227q0 147 76 228t212 81q87 0 148.5 -39t91.5 -110l-131 -64q-28 93 -114 93q-57 0 -100 -45t-43 -146q0 -86 35 -138.5t110 -52.5q57 0 86.5 24t29.5 63v20h-124v108zM415 -141q0 -114 -143 -114
v45q34 1 50 9.5t16 29.5q-29 -6 -50.5 9t-21.5 46q0 32 20 48.5t50 16.5q35 0 57 -25t22 -65z" />
    <glyph glyph-name="gcommaaccent" unicode="&#x123;" horiz-adv-x="502" 
d="M240 473q79 0 131 -29q22 22 35 70l105 -35q-4 -32 -28.5 -55t-55.5 -32q21 -33 21 -82q0 -77 -59.5 -118t-152.5 -41q-40 0 -56 6q-22 -14 -22 -38q0 -28 37 -28h132q77 0 120 -37.5t43 -98.5q0 -47 -22.5 -81t-62.5 -52t-84.5 -25.5t-98.5 -7.5q-216 0 -216 116
q0 84 122 93q-33 2 -54 26t-21 56q0 29 20 54.5t58 36.5q-49 19 -72.5 52t-23.5 87q0 79 55.5 121t149.5 42zM129 -69q0 -53 108 -53q69 0 98.5 13t29.5 41q0 21 -13.5 30t-43.5 9h-114q-65 0 -65 -40zM170 310q0 -32 18 -51.5t52 -19.5q71 0 71 71q0 72 -71 72
q-70 -1 -70 -72zM169 611q0 114 143 114v-45q-34 -1 -50 -9.5t-16 -29.5q29 6 50.5 -9t21.5 -46q0 -32 -19.5 -48.5t-50.5 -16.5q-35 0 -57 25t-22 65z" />
    <glyph glyph-name="Hcircumflex" unicode="&#x124;" horiz-adv-x="652" 
d="M213 0h-136v589h136v-231h226v231h136v-589h-136v240h-226v-240zM284 792h85l134 -145h-124l-31 31q-8 8 -13 15.5t-6 10.5l-1 4h-4q-3 -12 -20 -30l-30 -31h-125z" />
    <glyph glyph-name="hcircumflex" unicode="&#x125;" horiz-adv-x="535" 
d="M197 668v-294q35 99 144 99q58 0 97 -36.5t39 -109.5v-327h-134v277q0 84 -62 84q-84 0 -84 -106v-255h-134v668h134zM93 854h85l134 -145h-124l-31 31q-8 8 -13 15.5t-6 10.5l-1 4h-4q-3 -12 -20 -30l-30 -31h-125z" />
    <glyph glyph-name="Hbar" unicode="&#x126;" horiz-adv-x="663" 
d="M7 412v104h75v73h136v-73h227v73h135v-73h76v-104h-76v-412h-135v232h-227v-232h-136v412h-75zM218 341h227v71h-227v-71z" />
    <glyph glyph-name="hbar" unicode="&#x127;" horiz-adv-x="535" 
d="M197 668v-68h139v-81h-139v-145q35 99 144 99q58 0 97 -36.5t39 -109.5v-327h-134v277q0 84 -62 84q-84 0 -84 -106v-255h-134v519h-72v81h72v68h134z" />
    <glyph glyph-name="Itilde" unicode="&#x128;" horiz-adv-x="290" 
d="M77 589h136v-589h-136v589zM222 649q-37 0 -74 22q-43 25 -58 25q-16 0 -25.5 -12.5t-5.5 -36.5h-74q-28 58 0 107.5t87 49.5q31 0 68 -21q48 -27 62 -27q32 0 26 46h78q26 -61 1 -107t-85 -46z" />
    <glyph glyph-name="itilde" unicode="&#x129;" horiz-adv-x="260" 
d="M207 521q-36 0 -74 23q-45 25 -58 25q-16 0 -25.5 -12.5t-5.5 -36.5h-74q-28 57 0 106.5t87 49.5q33 0 68 -20q47 -28 62 -28q33 0 26 46h78q26 -61 1 -107t-85 -46zM63 462h134v-462h-134v462z" />
    <glyph glyph-name="Imacron" unicode="&#x12a;" horiz-adv-x="290" 
d="M77 589h136v-589h-136v589zM295 664h-301v108h301v-108z" />
    <glyph glyph-name="imacron" unicode="&#x12b;" horiz-adv-x="260" 
d="M259 539h-259v108h259v-108zM63 462h134v-462h-134v462z" />
    <glyph glyph-name="Ibreve" unicode="&#x12c;" horiz-adv-x="290" 
d="M77 589h136v-589h-136v589zM145 642q-76 0 -113 39.5t-37 109.5h99q1 -28 12.5 -41.5t38.5 -13.5q28 0 39 13t12 42h99q0 -70 -37 -109.5t-113 -39.5z" />
    <glyph glyph-name="Iogonek" unicode="&#x12e;" horiz-adv-x="290" 
d="M11 -99q0 72 66 112v576h136v-589q-41 0 -67 -19t-26 -54q0 -24 13 -37.5t36 -13.5q35 0 65 29l29 -67q-43 -49 -124 -49q-54 0 -91 27.5t-37 84.5z" />
    <glyph glyph-name="iogonek" unicode="&#x12f;" horiz-adv-x="260" 
d="M-5 -99q0 73 68 113v448h134v-462q-41 0 -67 -19t-26 -54q0 -24 13 -37.5t36 -13.5q35 0 65 29l29 -67q-43 -49 -124 -49q-54 0 -91 27.5t-37 84.5zM49 603q0 37 23 57.5t58 20.5q37 0 60 -20.5t23 -57.5q0 -36 -23.5 -56t-59.5 -20q-35 0 -58 20t-23 56z" />
    <glyph glyph-name="Idotaccent" unicode="&#x130;" horiz-adv-x="290" 
d="M77 589h136v-589h-136v589zM63 724q0 37 23 57.5t58 20.5q37 0 60.5 -20.5t23.5 -57.5q0 -36 -23.5 -56t-60.5 -20q-35 0 -58 20t-23 56z" />
    <glyph glyph-name="dotlessi" unicode="&#x131;" horiz-adv-x="260" 
d="M63 462h134v-462h-134v462z" />
    <glyph glyph-name="IJ" unicode="&#x132;" horiz-adv-x="744" 
d="M77 589h136v-589h-136v589zM547 589h135v-418q0 -95 -57 -139t-149 -44q-144 0 -202 113l100 90q19 -46 42 -68.5t58 -22.5q40 0 56.5 23t16.5 72v394z" />
    <glyph glyph-name="ij" unicode="&#x133;" horiz-adv-x="518" 
d="M49 603q0 37 23 57.5t58 20.5q37 0 60 -20.5t23 -57.5q0 -36 -23.5 -56t-59.5 -20q-35 0 -58 20t-23 56zM63 462h134v-462h-134v462zM322 462h134v-457q0 -111 -71 -163.5t-192 -43.5v113q68 -10 98.5 14t30.5 101v436zM306 603q0 37 23 57.5t58 20.5q37 0 60.5 -20.5
t23.5 -57.5q0 -36 -23.5 -56t-60.5 -20q-35 0 -58 20t-23 56z" />
    <glyph glyph-name="Jcircumflex" unicode="&#x134;" horiz-adv-x="469" 
d="M273 589h135v-418q0 -95 -57 -139t-149 -44q-144 0 -202 113l100 90q19 -46 42 -68.5t58 -22.5q40 0 56.5 23t16.5 72v394zM295 792h85l134 -145h-124l-31 31q-8 8 -13 15.5t-6 10.5l-1 4h-4q-3 -12 -20 -30l-30 -31h-125z" />
    <glyph glyph-name="jcircumflex" unicode="&#x135;" horiz-adv-x="259" 
d="M63 462h133v-457q0 -111 -71 -163.5t-192 -43.5v113q68 -10 99 14t31 101v436zM85 683h84l135 -159h-123l-32 34q-8 9 -13 17.5t-6 12.5l-1 3h-4q-1 -12 -20 -33l-32 -34h-123z" />
    <glyph glyph-name="Kcommaaccent" unicode="&#x136;" horiz-adv-x="581" 
d="M569 0h-162l-159 240h-35v-240h-136v589h136v-231h36l146 231h156l-186 -285zM370 -141q0 -114 -143 -114v45q34 1 50 9.5t16 29.5q-29 -6 -50.5 9t-21.5 46q0 32 20 48.5t50 16.5q35 0 57 -25t22 -65z" />
    <glyph glyph-name="kcommaaccent" unicode="&#x137;" horiz-adv-x="519" 
d="M335 247l175 -247h-156l-130 190h-27v-190h-134v668h134v-374h25l118 168h155zM342 -141q0 -114 -143 -114v45q34 1 50 9.5t16 29.5q-29 -6 -50.5 9t-21.5 46q0 32 20 48.5t50 16.5q35 0 57 -25t22 -65z" />
    <glyph glyph-name="kgreenlandic" unicode="&#x138;" horiz-adv-x="519" 
d="M335 247l175 -247h-156l-130 190h-27v-190h-134v462h133v-168h26l118 168h155z" />
    <glyph glyph-name="Lacute" unicode="&#x139;" horiz-adv-x="471" 
d="M77 589h136v-471h230v-118h-366v589zM202 647h-123l64 143h168z" />
    <glyph glyph-name="lacute" unicode="&#x13a;" horiz-adv-x="289" 
d="M266 115l-7 -112q-45 -12 -77 -12q-56 0 -92 28.5t-36 89.5v559h134v-520q0 -40 42 -40q19 0 36 7zM182 724h-123l64 143h168z" />
    <glyph glyph-name="Lcommaaccent" unicode="&#x13b;" horiz-adv-x="471" 
d="M77 589h136v-471h230v-118h-366v589zM344 -141q0 -114 -143 -114v45q34 1 50 9.5t16 29.5q-29 -6 -50.5 9t-21.5 46q0 32 20 48.5t50 16.5q35 0 57 -25t22 -65z" />
    <glyph glyph-name="lcommaaccent" unicode="&#x13c;" horiz-adv-x="289" 
d="M266 115l-7 -112q-45 -12 -77 -12q-56 0 -92 28.5t-36 89.5v559h134v-520q0 -40 42 -40q19 0 36 7zM240 -141q0 -114 -143 -114v45q34 1 50 9.5t16 29.5q-29 -6 -50.5 9t-21.5 46q0 32 20 48.5t50 16.5q35 0 57 -25t22 -65z" />
    <glyph glyph-name="Lcaron" unicode="&#x13d;" horiz-adv-x="471" 
d="M77 589h136v-471h230v-118h-366v589zM461 620l-58 -194h-95l15 194h138z" />
    <glyph glyph-name="lcaron" unicode="&#x13e;" horiz-adv-x="289" 
d="M397 692l-57 -178h-96l15 178h138zM266 115l-7 -112q-45 -12 -77 -12q-56 0 -92 28.5t-36 89.5v559h134v-520q0 -40 42 -40q19 0 36 7z" />
    <glyph glyph-name="Ldot" unicode="&#x13f;" horiz-adv-x="471" 
d="M77 589h136v-471h230v-118h-366v589zM267 338q0 37 24.5 62.5t59.5 25.5q38 0 63 -25t25 -63q0 -36 -25 -60t-63 -24q-35 0 -59.5 24.5t-24.5 59.5z" />
    <glyph glyph-name="ldot" unicode="&#x140;" horiz-adv-x="379" 
d="M266 115l-7 -112q-45 -12 -77 -12q-56 0 -92 28.5t-36 89.5v559h134v-520q0 -40 42 -40q19 0 36 7zM231 327q0 37 24.5 62.5t59.5 25.5q38 0 63 -25t25 -63q0 -36 -25 -60t-63 -24q-35 0 -59.5 24.5t-24.5 59.5z" />
    <glyph glyph-name="Lslash" unicode="&#x141;" horiz-adv-x="484" 
d="M30 213v88l60 21v267h136v-219l134 48v-90l-134 -47v-163h230v-118h-366v234z" />
    <glyph glyph-name="lslash" unicode="&#x142;" horiz-adv-x="307" 
d="M4 239v97l63 31v301h134v-235l83 41v-96l-83 -41v-189q0 -40 42 -40q19 0 36 7l-7 -112q-45 -12 -77 -12q-56 0 -92 28.5t-36 89.5v161z" />
    <glyph glyph-name="Nacute" unicode="&#x143;" horiz-adv-x="676" 
d="M205 589l208 -285q15 -20 27 -39.5t17 -29.5l5 -10h4q-3 50 -3 125v239h136v-589h-124l-208 280q-17 22 -31 44t-20 32l-5 11h-4q6 -48 6 -133v-234h-136v589h128zM391 647h-123l64 143h168z" />
    <glyph glyph-name="nacute" unicode="&#x144;" horiz-adv-x="535" 
d="M177 462l16 -89q36 100 148 100q58 0 97 -36.5t39 -109.5v-327h-134v277q0 84 -62 84q-84 0 -84 -107v-254h-134v462h114zM323 526h-122l70 153h168z" />
    <glyph glyph-name="Ncommaaccent" unicode="&#x145;" horiz-adv-x="676" 
d="M205 589l208 -285q15 -20 27 -39.5t17 -29.5l5 -10h4q-3 50 -3 125v239h136v-589h-124l-208 280q-17 22 -31 44t-20 32l-5 11h-4q6 -48 6 -133v-234h-136v589h128zM422 -141q0 -114 -143 -114v45q34 1 50 9.5t16 29.5q-29 -6 -50.5 9t-21.5 46q0 32 20 48.5t50 16.5
q35 0 57 -25t22 -65z" />
    <glyph glyph-name="ncommaaccent" unicode="&#x146;" horiz-adv-x="535" 
d="M177 462l16 -89q36 100 148 100q58 0 97 -36.5t39 -109.5v-327h-134v277q0 84 -62 84q-84 0 -84 -107v-254h-134v462h114zM346 -141q0 -114 -143 -114v45q34 1 50 9.5t16 29.5q-29 -6 -50.5 9t-21.5 46q0 32 20 48.5t50 16.5q35 0 57 -25t22 -65z" />
    <glyph glyph-name="Ncaron" unicode="&#x147;" horiz-adv-x="676" 
d="M205 589l208 -285q15 -20 27 -39.5t17 -29.5l5 -10h4q-3 50 -3 125v239h136v-589h-124l-208 280q-17 22 -31 44t-20 32l-5 11h-4q6 -48 6 -133v-234h-136v589h128zM381 646h-85l-135 145h125l30 -31q8 -8 13 -15.5t6 -10.5l1 -4h4q3 12 20 30l31 31h124z" />
    <glyph glyph-name="ncaron" unicode="&#x148;" horiz-adv-x="535" 
d="M177 462l16 -89q36 100 148 100q58 0 97 -36.5t39 -109.5v-327h-134v277q0 84 -62 84q-84 0 -84 -107v-254h-134v462h114zM313 524h-84l-135 159h123l32 -35q8 -9 13 -17.5t6 -12.5l1 -3h4q1 12 20 33l32 35h123z" />
    <glyph glyph-name="Eng" unicode="&#x14a;" horiz-adv-x="676" 
d="M599 589v-617q0 -96 -58.5 -139.5t-147.5 -43.5q-118 0 -186 71l74 110q17 -32 46.5 -50t58.5 -18q42 0 59.5 22.5t17.5 71.5v20l-196 264q-17 22 -31 44t-20 32l-5 11h-4q6 -48 6 -133v-234h-136v589h128l208 -285q15 -20 27 -39.5t17 -29.5l5 -10h4q-3 50 -3 125v239
h136z" />
    <glyph glyph-name="eng" unicode="&#x14b;" horiz-adv-x="535" 
d="M197 0h-134v462h114l16 -89q36 100 148 100q58 0 97 -36.5t39 -109.5v-322q0 -111 -71 -163.5t-192 -43.5v113q68 -10 98.5 14t30.5 101v251q0 84 -62 84q-84 0 -84 -107v-254z" />
    <glyph glyph-name="Omacron" unicode="&#x14c;" horiz-adv-x="641" 
d="M320 -12q-132 0 -205.5 79.5t-73.5 226.5t73.5 227t205.5 80t206 -80t74 -227t-74 -226.5t-206 -79.5zM320 480q-68 0 -103 -49.5t-35 -138.5t35 -138t103 -49q69 0 104 49t35 138t-35 138.5t-104 49.5zM471 664h-301v108h301v-108z" />
    <glyph glyph-name="omacron" unicode="&#x14d;" horiz-adv-x="513" 
d="M257 -12q-103 0 -163.5 64.5t-60.5 179.5q0 116 60.5 178.5t163.5 62.5t163 -62.5t60 -178.5q0 -115 -60.5 -179.5t-162.5 -64.5zM257 366q-92 0 -92 -134q0 -72 22.5 -106t69.5 -34q91 0 91 140q0 134 -91 134zM404 539h-294v108h294v-108z" />
    <glyph glyph-name="Obreve" unicode="&#x14e;" horiz-adv-x="641" 
d="M320 -12q-132 0 -205.5 79.5t-73.5 226.5t73.5 227t205.5 80t206 -80t74 -227t-74 -226.5t-206 -79.5zM320 480q-68 0 -103 -49.5t-35 -138.5t35 -138t103 -49q69 0 104 49t35 138t-35 138.5t-104 49.5zM320 642q-76 0 -113 39.5t-37 109.5h99q1 -28 12.5 -41.5
t38.5 -13.5q28 0 39 13t12 42h99q0 -70 -37 -109.5t-113 -39.5z" />
    <glyph glyph-name="obreve" unicode="&#x14f;" horiz-adv-x="513" 
d="M257 -12q-103 0 -163.5 64.5t-60.5 179.5q0 116 60.5 178.5t163.5 62.5t163 -62.5t60 -178.5q0 -115 -60.5 -179.5t-162.5 -64.5zM257 366q-92 0 -92 -134q0 -72 22.5 -106t69.5 -34q91 0 91 140q0 134 -91 134zM256 520q-75 0 -112.5 44t-37.5 114h99q1 -32 11.5 -47
t39.5 -15q30 0 40 15t11 47h99q0 -70 -37.5 -114t-112.5 -44z" />
    <glyph glyph-name="Ohungarumlaut" unicode="&#x150;" horiz-adv-x="641" 
d="M320 -12q-132 0 -205.5 79.5t-73.5 226.5t73.5 227t205.5 80t206 -80t74 -227t-74 -226.5t-206 -79.5zM320 480q-68 0 -103 -49.5t-35 -138.5t35 -138t103 -49q69 0 104 49t35 138t-35 138.5t-104 49.5zM282 647h-95l52 143h141zM457 647h-104l70 143h150z" />
    <glyph glyph-name="ohungarumlaut" unicode="&#x151;" horiz-adv-x="513" 
d="M257 -12q-103 0 -163.5 64.5t-60.5 179.5q0 116 60.5 178.5t163.5 62.5t163 -62.5t60 -178.5q0 -115 -60.5 -179.5t-162.5 -64.5zM257 366q-92 0 -92 -134q0 -72 22.5 -106t69.5 -34q91 0 91 140q0 134 -91 134zM215 526h-95l52 153h141zM390 526h-104l70 153h150z" />
    <glyph glyph-name="OE" unicode="&#x152;" horiz-adv-x="871" 
d="M320 -12q-132 0 -205.5 79.5t-73.5 226.5t73.5 227t205.5 80q50 0 92 -12h409v-118h-262q29 -48 36 -117h195v-113h-193q-7 -69 -38 -123h262v-118h-409q-42 -12 -92 -12zM320 480q-68 0 -102.5 -49.5t-34.5 -138.5t34.5 -138t102.5 -49t103 49t35 138q0 90 -35 139
t-103 49z" />
    <glyph glyph-name="oe" unicode="&#x153;" horiz-adv-x="804" 
d="M575 91q62 0 81 63l114 -39q-17 -66 -70 -96.5t-127 -30.5q-109 0 -160 72q-45 -72 -156 -72q-103 0 -163.5 64.5t-60.5 179.5q0 116 60.5 178.5t163.5 62.5q111 0 158 -78q48 78 160 78q95 0 145 -56t50 -149q0 -27 -7 -60h-285q2 -54 27 -85.5t70 -31.5zM257 366
q-92 0 -92 -134q0 -72 22.5 -106t69.5 -34q91 0 91 140q0 134 -91 134zM482 282h159q1 6 1 16q0 33 -19 54.5t-53 21.5q-37 0 -60.5 -25.5t-27.5 -66.5z" />
    <glyph glyph-name="Racute" unicode="&#x154;" horiz-adv-x="582" 
d="M555 0h-151q-20 16 -31 61l-22 88q-9 36 -26.5 47.5t-53.5 11.5h-58v-208h-136v589h232q214 0 214 -180q0 -66 -35 -104t-94 -44v-2q41 -7 64 -26.5t34 -59.5l30 -110q10 -39 33 -63zM213 474v-154h87q84 0 84 77t-84 77h-87zM331 647h-123l64 143h168z" />
    <glyph glyph-name="racute" unicode="&#x155;" horiz-adv-x="394" 
d="M382 472l-15 -148q-23 8 -52 8q-48 0 -83 -28t-35 -93v-211h-134v462h116l16 -127q17 68 59.5 105t127.5 32zM274 526h-122l70 153h168z" />
    <glyph glyph-name="Rcommaaccent" unicode="&#x156;" horiz-adv-x="582" 
d="M555 0h-151q-20 16 -31 61l-22 88q-9 36 -26.5 47.5t-53.5 11.5h-58v-208h-136v589h232q214 0 214 -180q0 -66 -35 -104t-94 -44v-2q41 -7 64 -26.5t34 -59.5l30 -110q10 -39 33 -63zM213 474v-154h87q84 0 84 77t-84 77h-87zM362 -141q0 -114 -143 -114v45q34 1 50 9.5
t16 29.5q-29 -6 -50.5 9t-21.5 46q0 32 20 48.5t50 16.5q35 0 57 -25t22 -65z" />
    <glyph glyph-name="rcommaaccent" unicode="&#x157;" horiz-adv-x="394" 
d="M382 472l-15 -148q-23 8 -52 8q-48 0 -83 -28t-35 -93v-211h-134v462h116l16 -127q17 68 59.5 105t127.5 32zM203 -141q0 -114 -143 -114v45q34 1 50 9.5t16 29.5q-29 -6 -50.5 9t-21.5 46q0 32 20 48.5t50 16.5q35 0 57 -25t22 -65z" />
    <glyph glyph-name="Rcaron" unicode="&#x158;" horiz-adv-x="582" 
d="M555 0h-151q-20 16 -31 61l-22 88q-9 36 -26.5 47.5t-53.5 11.5h-58v-208h-136v589h232q214 0 214 -180q0 -66 -35 -104t-94 -44v-2q41 -7 64 -26.5t34 -59.5l30 -110q10 -39 33 -63zM213 474v-154h87q84 0 84 77t-84 77h-87zM321 646h-85l-135 145h125l30 -31
q8 -8 13 -15.5t6 -10.5l1 -4h4q3 12 20 30l31 31h124z" />
    <glyph glyph-name="rcaron" unicode="&#x159;" horiz-adv-x="394" 
d="M382 472l-15 -148q-23 8 -52 8q-48 0 -83 -28t-35 -93v-211h-134v462h116l16 -127q17 68 59.5 105t127.5 32zM257 524h-84l-135 159h123l32 -35q8 -9 13 -17.5t6 -12.5l1 -3h4q1 12 20 33l32 35h123z" />
    <glyph glyph-name="Sacute" unicode="&#x15a;" horiz-adv-x="515" 
d="M22 132l124 55q8 -43 38 -69t72 -26q35 0 56.5 14.5t21.5 43.5t-20.5 45.5t-77.5 34.5q-103 33 -147 76.5t-44 118.5q0 92 59.5 134.5t147.5 42.5q207 0 223 -153l-135 -34q-4 37 -28 56t-57 19q-30 0 -49 -14t-19 -41q0 -29 22.5 -45t78.5 -33q100 -31 143.5 -72.5
t43.5 -121.5q0 -90 -63.5 -132.5t-165.5 -42.5q-91 0 -146.5 33.5t-77.5 110.5zM314 647h-123l64 143h168z" />
    <glyph glyph-name="sacute" unicode="&#x15b;" horiz-adv-x="445" 
d="M18 107l110 44q14 -69 90 -69q63 0 63 40q0 19 -13.5 29.5t-45.5 18.5l-68 16q-118 31 -118 137q0 81 53 115.5t135 34.5q173 0 183 -130l-125 -18q-4 27 -19 38t-45 11q-24 0 -38 -10t-14 -28q0 -33 45 -42l65 -14q138 -29 138 -149q0 -74 -53.5 -108.5t-144.5 -34.5
q-88 0 -136.5 27.5t-61.5 91.5zM284 526h-122l70 153h168z" />
    <glyph glyph-name="Scircumflex" unicode="&#x15c;" horiz-adv-x="515" 
d="M22 132l124 55q8 -43 38 -69t72 -26q35 0 56.5 14.5t21.5 43.5t-20.5 45.5t-77.5 34.5q-103 33 -147 76.5t-44 118.5q0 92 59.5 134.5t147.5 42.5q207 0 223 -153l-135 -34q-4 37 -28 56t-57 19q-30 0 -49 -14t-19 -41q0 -29 22.5 -45t78.5 -33q100 -31 143.5 -72.5
t43.5 -121.5q0 -90 -63.5 -132.5t-165.5 -42.5q-91 0 -146.5 33.5t-77.5 110.5zM219 792h85l134 -145h-124l-31 31q-8 8 -13 15.5t-6 10.5l-1 4h-4q-3 -12 -20 -30l-30 -31h-125z" />
    <glyph glyph-name="scircumflex" unicode="&#x15d;" horiz-adv-x="445" 
d="M18 107l110 44q14 -69 90 -69q63 0 63 40q0 19 -13.5 29.5t-45.5 18.5l-68 16q-118 31 -118 137q0 81 53 115.5t135 34.5q173 0 183 -130l-125 -18q-4 27 -19 38t-45 11q-24 0 -38 -10t-14 -28q0 -33 45 -42l65 -14q138 -29 138 -149q0 -74 -53.5 -108.5t-144.5 -34.5
q-88 0 -136.5 27.5t-61.5 91.5zM191 683h84l135 -159h-123l-32 34q-8 9 -13 17.5t-6 12.5l-1 3h-4q-1 -12 -20 -33l-32 -34h-123z" />
    <glyph glyph-name="Scedilla" unicode="&#x15e;" horiz-adv-x="515" 
d="M367 -118q0 -45 -32 -69t-83 -24q-72 0 -105 36l25 64q31 -35 65 -35q30 0 30 26q0 34 -51 40l7 69q-163 8 -201 143l124 55q8 -43 38 -69t72 -26q35 0 56.5 14.5t21.5 43.5t-20.5 45.5t-77.5 34.5q-103 33 -147 76.5t-44 118.5q0 92 59.5 134.5t147.5 42.5
q207 0 223 -153l-135 -34q-4 37 -28 56t-57 19q-30 0 -49 -14t-19 -41q0 -29 22.5 -45t78.5 -33q100 -31 143.5 -72.5t43.5 -121.5q0 -82 -53 -124.5t-141 -48.5l-2 -26q88 -6 88 -82z" />
    <glyph glyph-name="scedilla" unicode="&#x15f;" horiz-adv-x="445" 
d="M328 -118q0 -45 -32 -69t-83 -24q-72 0 -105 36l25 64q31 -35 65 -35q30 0 30 26q0 34 -51 40l7 69q-73 5 -113.5 32.5t-52.5 85.5l110 44q14 -69 90 -69q63 0 63 40q0 19 -13.5 29.5t-45.5 18.5l-68 16q-118 31 -118 137q0 81 53 115.5t135 34.5q173 0 183 -130
l-125 -18q-4 27 -19 38t-45 11q-24 0 -38 -10t-14 -28q0 -33 45 -42l65 -14q138 -29 138 -149q0 -68 -46 -102.5t-126 -39.5l-2 -25q88 -6 88 -82z" />
    <glyph glyph-name="Scaron" unicode="&#x160;" horiz-adv-x="515" 
d="M22 132l124 55q8 -43 38 -69t72 -26q35 0 56.5 14.5t21.5 43.5t-20.5 45.5t-77.5 34.5q-103 33 -147 76.5t-44 118.5q0 92 59.5 134.5t147.5 42.5q207 0 223 -153l-135 -34q-4 37 -28 56t-57 19q-30 0 -49 -14t-19 -41q0 -29 22.5 -45t78.5 -33q100 -31 143.5 -72.5
t43.5 -121.5q0 -90 -63.5 -132.5t-165.5 -42.5q-91 0 -146.5 33.5t-77.5 110.5zM304 646h-85l-135 145h125l30 -31q8 -8 13 -15.5t6 -10.5l1 -4h4q3 12 20 30l31 31h124z" />
    <glyph glyph-name="scaron" unicode="&#x161;" horiz-adv-x="445" 
d="M18 107l110 44q14 -69 90 -69q63 0 63 40q0 19 -13.5 29.5t-45.5 18.5l-68 16q-118 31 -118 137q0 81 53 115.5t135 34.5q173 0 183 -130l-125 -18q-4 27 -19 38t-45 11q-24 0 -38 -10t-14 -28q0 -33 45 -42l65 -14q138 -29 138 -149q0 -74 -53.5 -108.5t-144.5 -34.5
q-88 0 -136.5 27.5t-61.5 91.5zM265 524h-84l-135 159h123l32 -35q8 -9 13 -17.5t6 -12.5l1 -3h4q1 12 20 33l32 35h123z" />
    <glyph glyph-name="Tcommaaccent" unicode="&#x162;" horiz-adv-x="479" 
d="M305 0h-134v471h-161v118h459v-118h-164v-471zM310 -141q0 -114 -143 -114v45q34 1 50 9.5t16 29.5q-29 -6 -50.5 9t-21.5 46q0 32 20 48.5t50 16.5q35 0 57 -25t22 -65z" />
    <glyph glyph-name="tcommaaccent" unicode="&#x163;" horiz-adv-x="386" 
d="M348 131l23 -113q-59 -30 -142 -30q-152 0 -152 149v222h-67v103h68v98l134 16v-114h137v-103h-138v-192q0 -36 13.5 -50.5t42.5 -14.5q40 0 81 29zM278 -141q0 -114 -143 -114v45q34 1 50 9.5t16 29.5q-29 -6 -50.5 9t-21.5 46q0 32 20 48.5t50 16.5q35 0 57 -25t22 -65
z" />
    <glyph glyph-name="Tcaron" unicode="&#x164;" horiz-adv-x="479" 
d="M305 0h-134v471h-161v118h459v-118h-164v-471zM282 646h-85l-135 145h125l30 -31q8 -8 13 -15.5t6 -10.5l1 -4h4q3 12 20 30l31 31h124z" />
    <glyph glyph-name="tcaron" unicode="&#x165;" horiz-adv-x="386" 
d="M348 131l23 -113q-59 -30 -142 -30q-152 0 -152 149v222h-67v103h68v98l134 16v-114h137v-103h-138v-192q0 -36 13.5 -50.5t42.5 -14.5q40 0 81 29zM410 710l-58 -194h-95l15 194h138z" />
    <glyph glyph-name="Tbar" unicode="&#x166;" horiz-adv-x="479" 
d="M305 0h-134v221h-101v109h101v141h-161v118h459v-118h-164v-141h105v-109h-105v-221z" />
    <glyph glyph-name="tbar" unicode="&#x167;" horiz-adv-x="386" 
d="M10 203v98h67v58h-67v103h68v98l134 16v-114h137v-103h-138v-58h138v-98h-138v-36q0 -36 13.5 -50.5t42.5 -14.5q40 0 81 29l23 -113q-59 -30 -142 -30q-152 0 -152 149v66h-67z" />
    <glyph glyph-name="Utilde" unicode="&#x168;" horiz-adv-x="608" 
d="M412 589h135v-392q0 -111 -67 -160t-176 -49t-176 49t-67 160v392h136v-354q0 -68 23.5 -101t83.5 -33q61 0 84.5 33.5t23.5 101.5v353zM380 649q-37 0 -74 22q-43 25 -58 25q-16 0 -25.5 -12.5t-5.5 -36.5h-74q-28 58 0 107.5t87 49.5q31 0 68 -21q48 -27 62 -27
q32 0 26 46h78q26 -61 1 -107t-85 -46z" />
    <glyph glyph-name="utilde" unicode="&#x169;" horiz-adv-x="531" 
d="M352 0l-16 86q-25 -98 -143 -98q-139 0 -139 149v325h134v-287q0 -86 63 -86q37 0 60 31t23 94v248h134v-462h-116zM337 521q-36 0 -74 23q-45 25 -58 25q-16 0 -25.5 -12.5t-5.5 -36.5h-74q-28 57 0 106.5t87 49.5q33 0 68 -20q47 -28 62 -28q33 0 26 46h78
q26 -61 1 -107t-85 -46z" />
    <glyph glyph-name="Umacron" unicode="&#x16a;" horiz-adv-x="608" 
d="M412 589h135v-392q0 -111 -67 -160t-176 -49t-176 49t-67 160v392h136v-354q0 -68 23.5 -101t83.5 -33q61 0 84.5 33.5t23.5 101.5v353zM454 664h-301v108h301v-108z" />
    <glyph glyph-name="umacron" unicode="&#x16b;" horiz-adv-x="531" 
d="M352 0l-16 86q-25 -98 -143 -98q-139 0 -139 149v325h134v-287q0 -86 63 -86q37 0 60 31t23 94v248h134v-462h-116zM408 539h-294v108h294v-108z" />
    <glyph glyph-name="Ubreve" unicode="&#x16c;" horiz-adv-x="608" 
d="M412 589h135v-392q0 -111 -67 -160t-176 -49t-176 49t-67 160v392h136v-354q0 -68 23.5 -101t83.5 -33q61 0 84.5 33.5t23.5 101.5v353zM304 642q-76 0 -113 39.5t-37 109.5h99q1 -28 12.5 -41.5t38.5 -13.5q28 0 39 13t12 42h99q0 -70 -37 -109.5t-113 -39.5z" />
    <glyph glyph-name="ubreve" unicode="&#x16d;" horiz-adv-x="531" 
d="M352 0l-16 86q-25 -98 -143 -98q-139 0 -139 149v325h134v-287q0 -86 63 -86q37 0 60 31t23 94v248h134v-462h-116zM261 520q-75 0 -112.5 44t-37.5 114h99q1 -32 11.5 -47t39.5 -15q30 0 40 15t11 47h99q0 -70 -37.5 -114t-112.5 -44z" />
    <glyph glyph-name="Uring" unicode="&#x16e;" horiz-adv-x="608" 
d="M412 589h135v-392q0 -111 -67 -160t-176 -49t-176 49t-67 160v392h136v-354q0 -68 23.5 -101t83.5 -33q61 0 84.5 33.5t23.5 101.5v353zM310 630q-54 0 -84.5 32t-30.5 80q0 45 32 76.5t83 31.5t83 -31.5t32 -76.5q0 -48 -30.5 -80t-84.5 -32zM310 790q-23 0 -36 -13.5
t-13 -35.5q0 -20 13 -34t36 -14t36 14t13 34q0 22 -13 35.5t-36 13.5z" />
    <glyph glyph-name="uring" unicode="&#x16f;" horiz-adv-x="531" 
d="M352 0l-16 86q-25 -98 -143 -98q-139 0 -139 149v325h134v-287q0 -86 63 -86q37 0 60 31t23 94v248h134v-462h-116zM261 506q-54 0 -84.5 32t-30.5 80q0 45 32 77t83 32t83 -32t32 -77q0 -48 -30.5 -80t-84.5 -32zM261 667q-23 0 -36 -14t-13 -36q0 -20 13 -34t36 -14
t36 14t13 34q0 22 -13 36t-36 14z" />
    <glyph glyph-name="Uhungarumlaut" unicode="&#x170;" horiz-adv-x="608" 
d="M412 589h135v-392q0 -111 -67 -160t-176 -49t-176 49t-67 160v392h136v-354q0 -68 23.5 -101t83.5 -33q61 0 84.5 33.5t23.5 101.5v353zM266 647h-95l52 143h141zM441 647h-104l70 143h150z" />
    <glyph glyph-name="uhungarumlaut" unicode="&#x171;" horiz-adv-x="531" 
d="M352 0l-16 86q-25 -98 -143 -98q-139 0 -139 149v325h134v-287q0 -86 63 -86q37 0 60 31t23 94v248h134v-462h-116zM220 526h-95l52 153h141zM395 526h-104l70 153h150z" />
    <glyph glyph-name="Uogonek" unicode="&#x172;" horiz-adv-x="608" 
d="M198 -99q0 57 38 93q-175 28 -175 203v392h136v-354q0 -68 23.5 -101t83.5 -33q61 0 84.5 33.5t23.5 101.5v353h135v-392q0 -187 -199 -207q-42 -18 -42 -63q0 -24 13.5 -37.5t36.5 -13.5q35 0 65 29l29 -67q-45 -49 -124 -49q-54 0 -91 27.5t-37 84.5z" />
    <glyph glyph-name="uogonek" unicode="&#x173;" horiz-adv-x="531" 
d="M267 -99q0 77 82 115l-13 71q-26 -99 -143 -99q-139 0 -139 149v325h134v-287q0 -86 63 -86q37 0 60 31.5t23 94.5v247h134v-462q-43 -2 -67.5 -21t-24.5 -53q0 -23 13 -36.5t35 -13.5q35 0 65 29l29 -67q-43 -49 -124 -49q-54 0 -90.5 27.5t-36.5 84.5z" />
    <glyph glyph-name="Wcircumflex" unicode="&#x174;" horiz-adv-x="873" 
d="M521 589l73 -324q8 -37 15 -79t10 -65l3 -23h4q8 84 25 166l66 325h138l-129 -589h-198l-67 291q-8 37 -14 78t-7 64l-2 23h-4q-5 -82 -25 -166l-70 -290h-191l-130 589h144l68 -324q8 -37 14.5 -79t9.5 -65l3 -23h4q9 84 26 166l72 325h162zM394 792h85l134 -145h-124
l-31 31q-8 8 -13 15.5t-6 10.5l-1 4h-4q-3 -12 -20 -30l-30 -31h-125z" />
    <glyph glyph-name="wcircumflex" unicode="&#x175;" horiz-adv-x="721" 
d="M423 462l51 -183q12 -41 19.5 -86t9.5 -69l2 -25h4q4 85 26 178l43 185h133l-120 -462h-159l-45 165q-8 33 -14 70t-8 58l-2 21h-4q-5 -74 -24 -150l-40 -164h-158l-127 462h136l48 -184q11 -41 18 -86t9 -69l2 -24h4q5 87 27 180l47 183h122zM319 683h84l135 -159h-123
l-32 34q-8 9 -13 17.5t-6 12.5l-1 3h-4q-1 -12 -20 -33l-32 -34h-123z" />
    <glyph glyph-name="Ycircumflex" unicode="&#x176;" horiz-adv-x="545" 
d="M164 589l69 -140q16 -35 27 -67t14 -46l3 -15h4q6 51 43 127l68 141h143l-188 -393v-196h-136v196l-201 393h154zM230 792h85l134 -145h-124l-31 31q-8 8 -13 15.5t-6 10.5l-1 4h-4q-3 -12 -20 -30l-30 -31h-125z" />
    <glyph glyph-name="ycircumflex" unicode="&#x177;" horiz-adv-x="484" 
d="M148 462l60 -210q12 -40 20 -77.5t10 -54.5l2 -17h4q6 59 33 148l64 211h141l-183 -503q-37 -100 -84.5 -133.5t-126.5 -33.5q-37 0 -83 11l20 118q27 -16 61 -16q32 0 52.5 15.5t34.5 53.5l-171 488h146zM202 683h84l135 -159h-123l-32 34q-8 9 -13 17.5t-6 12.5l-1 3
h-4q-1 -12 -20 -33l-32 -34h-123z" />
    <glyph glyph-name="Ydieresis" unicode="&#x178;" horiz-adv-x="545" 
d="M164 589l69 -140q16 -35 27 -67t14 -46l3 -15h4q6 51 43 127l68 141h143l-188 -393v-196h-136v196l-201 393h154zM85 723q0 36 21 55.5t53 19.5q34 0 55 -19.5t21 -55.5q0 -35 -21 -55t-55 -20q-31 0 -52.5 20t-21.5 55zM303 723q0 36 21 55.5t53 19.5q34 0 55 -19.5
t21 -55.5t-21.5 -55.5t-54.5 -19.5q-32 0 -53 20t-21 55z" />
    <glyph glyph-name="Zacute" unicode="&#x179;" horiz-adv-x="513" 
d="M476 494l-222 -304q-16 -22 -31.5 -40t-23.5 -26l-8 -7v-4q29 5 80 5h214v-118h-457v98l215 301q16 22 32 40t23 25l8 8v4q-28 -5 -80 -5h-191v118h441v-95zM310 647h-123l64 143h168z" />
    <glyph glyph-name="zacute" unicode="&#x17a;" horiz-adv-x="427" 
d="M390 378l-149 -202q-16 -22 -31.5 -40t-23.5 -26l-8 -7v-4q29 5 80 5h141v-104h-371v81l143 203q16 22 31.5 40t23.5 26l8 7v4q-28 -5 -80 -5h-118v106h354v-84zM267 526h-122l70 153h168z" />
    <glyph glyph-name="Zdotaccent" unicode="&#x17b;" horiz-adv-x="513" 
d="M476 494l-222 -304q-16 -22 -31.5 -40t-23.5 -26l-8 -7v-4q29 5 80 5h214v-118h-457v98l215 301q16 22 32 40t23 25l8 8v4q-28 -5 -80 -5h-191v118h441v-95zM175 731q0 37 23 57.5t58 20.5q37 0 60.5 -20.5t23.5 -57.5q0 -36 -23.5 -56t-60.5 -20q-35 0 -58 20t-23 56z
" />
    <glyph glyph-name="zdotaccent" unicode="&#x17c;" horiz-adv-x="427" 
d="M390 378l-149 -202q-16 -22 -31.5 -40t-23.5 -26l-8 -7v-4q29 5 80 5h141v-104h-371v81l143 203q16 22 31.5 40t23.5 26l8 7v4q-28 -5 -80 -5h-118v106h354v-84zM133 598q0 37 23 57.5t58 20.5q38 0 61 -20.5t23 -57.5q0 -36 -23 -56t-61 -20q-35 0 -58 20.5t-23 55.5z
" />
    <glyph glyph-name="Zcaron" unicode="&#x17d;" horiz-adv-x="513" 
d="M476 494l-222 -304q-16 -22 -31.5 -40t-23.5 -26l-8 -7v-4q29 5 80 5h214v-118h-457v98l215 301q16 22 32 40t23 25l8 8v4q-28 -5 -80 -5h-191v118h441v-95zM300 646h-85l-135 145h125l30 -31q8 -8 13 -15.5t6 -10.5l1 -4h4q3 12 20 30l31 31h124z" />
    <glyph glyph-name="zcaron" unicode="&#x17e;" horiz-adv-x="427" 
d="M390 378l-149 -202q-16 -22 -31.5 -40t-23.5 -26l-8 -7v-4q29 5 80 5h141v-104h-371v81l143 203q16 22 31.5 40t23.5 26l8 7v4q-28 -5 -80 -5h-118v106h354v-84zM264 524h-84l-135 159h123l32 -35q8 -9 13 -17.5t6 -12.5l1 -3h4q1 12 20 33l32 35h123z" />
    <glyph glyph-name="Schwa" unicode="&#x18f;" horiz-adv-x="592" 
d="M43 440q21 83 84.5 122t151.5 39q124 0 198 -78.5t74 -220.5q0 -151 -72 -232.5t-201 -81.5q-115 0 -176 69.5t-61 186.5q0 56 11 89h359q-4 64 -39.5 105t-96.5 41q-41 0 -71 -21.5t-43 -62.5zM410 231h-231q-2 -7 -2 -22q2 -47 29.5 -77t76.5 -30q57 0 89.5 36t37.5 93
z" />
    <glyph glyph-name="florin" unicode="&#x192;" horiz-adv-x="496" 
d="M31 -121l56 251h-67l18 101h68l18 90q18 88 77 130t137 42q97 0 148 -63l-79 -101q-28 48 -75 48q-55 0 -72 -67l-18 -79h118l-17 -101h-120l-57 -251h-135z" />
    <glyph glyph-name="Khook" unicode="&#x198;" horiz-adv-x="581" 
d="M412 422l-50 -121l207 -301h-162l-158 232h-36v-232h-136v589h136v-235h37l46 121q48 126 154 126q86 0 124 -78l-75 -91q-16 30 -41 30q-29 0 -46 -40z" />
    <glyph glyph-name="khook" unicode="&#x199;" horiz-adv-x="519" 
d="M197 190v-190h-134v501q0 43 13 76t35.5 52.5t52 31t63 13t67.5 -3.5t66 -16l-20 -121q-36 23 -67.5 28t-54 -17.5t-22.5 -74.5v-175h26l118 168h155l-160 -215l175 -247h-156l-130 190h-27z" />
    <glyph glyph-name="Ezh" unicode="&#x1b7;" horiz-adv-x="502" 
d="M149 273l86 126q15 22 31 40.5t24 25.5l8 7v4q-28 -5 -80 -5h-179v118h422v-95l-178 -235v-3q97 -6 145.5 -66.5t48.5 -149.5q0 -101 -63.5 -160t-174.5 -59q-105 0 -169.5 46.5t-80.5 133.5l114 58q9 -66 44 -100t89 -34q53 0 81.5 29.5t28.5 81.5q0 63 -48 102.5
t-149 42.5v92z" />
    <glyph glyph-name="Acaron" unicode="&#x1cd;" horiz-adv-x="616" 
d="M460 0l-43 123h-223l-42 -123h-142l213 589h168l215 -589h-146zM255 303l-23 -67h145l-24 66q-15 43 -26.5 85t-15.5 63l-4 20h-4q-15 -72 -48 -167zM348 646h-85l-135 145h125l30 -31q8 -8 13 -15.5t6 -10.5l1 -4h4q3 12 20 30l31 31h124z" />
    <glyph glyph-name="acaron" unicode="&#x1ce;" horiz-adv-x="501" 
d="M289 145v47q-127 4 -127 -63q0 -21 13.5 -33.5t37.5 -12.5q30 0 53 15.5t23 46.5zM421 320v-180q0 -42 34 -42q13 0 29 7v-97q-27 -17 -76 -17q-88 0 -110 73q-28 -76 -134 -76q-62 0 -99 34t-37 93q0 79 65 117.5t196 31.5v44q0 64 -54 64q-55 0 -58 -68l-133 25
q5 71 59 107.5t137 36.5q88 0 134.5 -38.5t46.5 -114.5zM285 524h-84l-135 159h123l32 -35q8 -9 13 -17.5t6 -12.5l1 -3h4q1 12 20 33l32 35h123z" />
    <glyph glyph-name="Icaron" unicode="&#x1cf;" horiz-adv-x="290" 
d="M77 589h136v-589h-136v589zM188 646h-85l-135 145h125l30 -31q8 -8 13 -15.5t6 -10.5l1 -4h4q3 12 20 30l31 31h124z" />
    <glyph glyph-name="icaron" unicode="&#x1d0;" horiz-adv-x="260" 
d="M172 524h-84l-135 159h123l32 -35q8 -9 13 -17.5t6 -12.5l1 -3h4q1 12 20 33l32 35h123zM63 462h134v-462h-134v462z" />
    <glyph glyph-name="Ocaron" unicode="&#x1d1;" horiz-adv-x="641" 
d="M320 -12q-132 0 -205.5 79.5t-73.5 226.5t73.5 227t205.5 80t206 -80t74 -227t-74 -226.5t-206 -79.5zM320 480q-68 0 -103 -49.5t-35 -138.5t35 -138t103 -49q69 0 104 49t35 138t-35 138.5t-104 49.5zM364 646h-85l-135 145h125l30 -31q8 -8 13 -15.5t6 -10.5l1 -4h4
q3 12 20 30l31 31h124z" />
    <glyph glyph-name="ocaron" unicode="&#x1d2;" horiz-adv-x="513" 
d="M257 -12q-103 0 -163.5 64.5t-60.5 179.5q0 116 60.5 178.5t163.5 62.5t163 -62.5t60 -178.5q0 -115 -60.5 -179.5t-162.5 -64.5zM257 366q-92 0 -92 -134q0 -72 22.5 -106t69.5 -34q91 0 91 140q0 134 -91 134zM299 524h-84l-135 159h123l32 -35q8 -9 13 -17.5t6 -12.5
l1 -3h4q1 12 20 33l32 35h123z" />
    <glyph glyph-name="Ucaron" unicode="&#x1d3;" horiz-adv-x="608" 
d="M412 589h135v-392q0 -111 -67 -160t-176 -49t-176 49t-67 160v392h136v-354q0 -68 23.5 -101t83.5 -33q61 0 84.5 33.5t23.5 101.5v353zM347 646h-85l-135 145h125l30 -31q8 -8 13 -15.5t6 -10.5l1 -4h4q3 12 20 30l31 31h124z" />
    <glyph glyph-name="ucaron" unicode="&#x1d4;" horiz-adv-x="531" 
d="M352 0l-16 86q-25 -98 -143 -98q-139 0 -139 149v325h134v-287q0 -86 63 -86q37 0 60 31t23 94v248h134v-462h-116zM303 524h-84l-135 159h123l32 -35q8 -9 13 -17.5t6 -12.5l1 -3h4q1 12 20 33l32 35h123z" />
    <glyph glyph-name="uni01D9" unicode="&#x1d9;" horiz-adv-x="608" 
d="M412 589h135v-392q0 -111 -67 -160t-176 -49t-176 49t-67 160v392h136v-354q0 -68 23.5 -101t83.5 -33q61 0 84.5 33.5t23.5 101.5v353zM117 693q0 36 21 55.5t53 19.5q34 0 55 -19.5t21 -55.5q0 -35 -21 -55t-55 -20q-31 0 -52.5 20t-21.5 55zM335 693q0 36 21 55.5
t53 19.5q34 0 55 -19.5t21 -55.5t-21.5 -55.5t-54.5 -19.5q-32 0 -53 20t-21 55zM344 775h-85l-135 145h125l30 -31q8 -8 13 -15.5t6 -11.5l1 -3h5q2 12 20 30l30 31h125z" />
    <glyph glyph-name="uni01DA" unicode="&#x1da;" horiz-adv-x="531" 
d="M352 0l-16 86q-25 -98 -143 -98q-139 0 -139 149v325h134v-287q0 -86 63 -86q37 0 60 31t23 94v248h134v-462h-116zM74 565q0 36 21 56t53 20q34 0 55.5 -20t21.5 -56q0 -35 -21.5 -55t-55.5 -20q-31 0 -52.5 20t-21.5 55zM292 565q0 36 21 55.5t53 19.5q34 0 55.5 -19.5
t21.5 -55.5q0 -35 -21.5 -55t-55.5 -20q-31 0 -52.5 20t-21.5 55zM302 647h-86l-134 145h124l31 -31q8 -8 13 -15.5t6 -11.5l1 -3h4q3 12 20 30l31 31h124z" />
    <glyph glyph-name="uni004100A800AF" unicode="&#x1de;" horiz-adv-x="616" 
d="M460 0l-43 123h-223l-42 -123h-142l213 589h168l215 -589h-146zM255 303l-23 -67h145l-24 66q-15 43 -26.5 85t-15.5 63l-4 20h-4q-15 -72 -48 -167zM455 831h-301v108h301v-108zM121 708q0 36 21 55.5t53 19.5q34 0 55 -19.5t21 -55.5q0 -35 -21 -55t-55 -20
q-31 0 -52.5 20t-21.5 55zM339 708q0 36 21 55.5t53 19.5q34 0 55 -19.5t21 -55.5t-21.5 -55.5t-54.5 -19.5q-32 0 -53 20t-21 55z" />
    <glyph glyph-name="adieresismacron" unicode="&#x1df;" horiz-adv-x="501" 
d="M289 145v47q-127 4 -127 -63q0 -21 13.5 -33.5t37.5 -12.5q30 0 53 15.5t23 46.5zM421 320v-180q0 -42 34 -42q13 0 29 7v-97q-27 -17 -76 -17q-88 0 -110 73q-28 -76 -134 -76q-62 0 -99 34t-37 93q0 79 65 117.5t196 31.5v44q0 64 -54 64q-55 0 -58 -68l-133 25
q5 71 59 107.5t137 36.5q88 0 134.5 -38.5t46.5 -114.5zM390 693h-294v108h294v-108zM56 576q0 36 21 55.5t53 19.5q34 0 55 -19.5t21 -55.5q0 -35 -21 -55t-55 -20q-31 0 -52.5 20t-21.5 55zM274 576q0 36 21 55.5t53 19.5q34 0 55 -19.5t21 -55.5t-21.5 -55.5t-54.5 -19.5
q-32 0 -53 20t-21 55z" />
    <glyph glyph-name="AEmacron" unicode="&#x1e2;" horiz-adv-x="876" 
d="M826 0h-395v123h-203l-77 -123h-149l351 589h473v-118h-259v-117h229v-113h-229v-123h259v-118zM433 490l-146 -254h144v94q0 45 1.5 85t3.5 57l1 18h-4zM712 664h-301v108h301v-108z" />
    <glyph glyph-name="aemacron" unicode="&#x1e3;" horiz-adv-x="739" 
d="M510 96q55 0 81 59l114 -40q-17 -66 -70.5 -96.5t-127.5 -30.5q-110 0 -170 72q-44 -72 -161 -72q-68 0 -108 33.5t-40 93.5q0 76 64 117.5t195 42.5q3 24 9 43q-7 54 -60 54q-54 0 -57 -68l-134 25q5 71 60 107.5t139 36.5q82 0 128 -41q55 41 137 41q93 0 144 -57.5
t51 -145.5q0 -39 -6 -69h-278q1 -47 23.5 -76t66.5 -29zM421 275h152q1 6 1 23q0 34 -17.5 55t-50.5 21q-37 0 -60 -29t-25 -70zM220 85q25 0 46.5 13t29.5 36q-10 34 -11 67q-115 -3 -115 -66q0 -23 13 -36.5t37 -13.5zM510 539h-294v108h294v-108z" />
    <glyph glyph-name="Gstroke" unicode="&#x1e4;" horiz-adv-x="658" 
d="M318 333h254v-117h57v-72h-57v-144h-84l-22 66q-44 -78 -162 -78q-120 0 -191.5 77t-71.5 227q0 147 76 228t212 81q87 0 148.5 -39t91.5 -110l-131 -64q-28 93 -114 93q-57 0 -100 -45t-43 -146q0 -87 35 -141t110 -54q87 0 115 49h-123v72h124v41h-124v76z" />
    <glyph glyph-name="gstroke" unicode="&#x1e5;" horiz-adv-x="573" 
d="M275 473q79 0 131 -29q22 22 35 70l105 -35q-4 -32 -28 -55t-55 -32q20 -34 20 -82q0 -77 -59.5 -118t-152.5 -41q-39 0 -56 6q-21 -13 -21 -38q0 -28 36 -28h132q77 0 120.5 -37.5t43.5 -98.5q0 -3 -0.5 -8t-0.5 -7h48v-35h-55q-40 -116 -261 -116q-216 0 -216 116h-41
v35h48q22 52 115 58q-33 2 -53.5 26t-20.5 56q0 29 19.5 54.5t57.5 36.5q-48 19 -72 52t-24 87q0 79 55.5 121t149.5 42zM205 310q0 -32 18 -51.5t52 -19.5q71 0 71 71q0 72 -71 72q-70 -2 -70 -72zM230 -26q-58 0 -67 -34h242q-4 34 -57 34h-118zM274 -129q104 0 125 34
h-231q21 -34 106 -34z" />
    <glyph glyph-name="Gcaron" unicode="&#x1e6;" horiz-adv-x="629" 
d="M318 314h254v-314h-84l-22 66q-44 -78 -162 -78q-120 0 -191.5 77t-71.5 227q0 147 76 228t212 81q87 0 148.5 -39t91.5 -110l-131 -64q-28 93 -114 93q-57 0 -100 -45t-43 -146q0 -86 35 -138.5t110 -52.5q57 0 86.5 24t29.5 63v20h-124v108zM374 646h-85l-135 145h125
l30 -31q8 -8 13 -15.5t6 -10.5l1 -4h4q3 12 20 30l31 31h124z" />
    <glyph glyph-name="gcaron" unicode="&#x1e7;" horiz-adv-x="502" 
d="M240 473q79 0 131 -29q22 22 35 70l105 -35q-4 -32 -28.5 -55t-55.5 -32q21 -33 21 -82q0 -77 -59.5 -118t-152.5 -41q-40 0 -56 6q-22 -14 -22 -38q0 -28 37 -28h132q77 0 120 -37.5t43 -98.5q0 -47 -22.5 -81t-62.5 -52t-84.5 -25.5t-98.5 -7.5q-216 0 -216 116
q0 84 122 93q-33 2 -54 26t-21 56q0 29 20 54.5t58 36.5q-49 19 -72.5 52t-23.5 87q0 79 55.5 121t149.5 42zM129 -69q0 -53 108 -53q69 0 98.5 13t29.5 41q0 21 -13.5 30t-43.5 9h-114q-65 0 -65 -40zM170 310q0 -32 18 -51.5t52 -19.5q71 0 71 71q0 72 -71 72
q-70 -1 -70 -72zM288 524h-84l-135 159h123l32 -35q8 -9 13 -17.5t6 -12.5l1 -3h4q1 12 20 33l32 35h123z" />
    <glyph glyph-name="Kcaron" unicode="&#x1e8;" horiz-adv-x="581" 
d="M569 0h-162l-159 240h-35v-240h-136v589h136v-231h36l146 231h156l-186 -285zM329 646h-85l-135 145h125l30 -31q8 -8 13 -15.5t6 -10.5l1 -4h4q3 12 20 30l31 31h124z" />
    <glyph glyph-name="kcaron" unicode="&#x1e9;" horiz-adv-x="519" 
d="M335 247l175 -247h-156l-130 190h-27v-190h-134v668h134v-374h25l118 168h155zM175 711h-85l-135 145h125l30 -31q8 -8 13 -15.5t6 -11.5l1 -3h4q3 12 20 30l31 31h124z" />
    <glyph glyph-name="Oogonek" unicode="&#x1ea;" horiz-adv-x="641" 
d="M209 -99q0 56 40 94q-99 20 -153.5 96.5t-54.5 202.5q0 147 73.5 227t205.5 80t206 -80t74 -227q0 -135 -63.5 -213.5t-177.5 -89.5q-41 -20 -41 -64q0 -24 13 -37.5t36 -13.5q35 0 65 29l29 -67q-43 -49 -124 -49q-54 0 -91 27.5t-37 84.5zM320 480q-68 0 -103 -49.5
t-35 -138.5t35 -138t103 -49q69 0 104 49t35 138t-35 138.5t-104 49.5z" />
    <glyph glyph-name="oogonek" unicode="&#x1eb;" horiz-adv-x="513" 
d="M135 -99q0 59 44 98q-69 21 -107.5 81.5t-38.5 151.5q0 116 60.5 178.5t163.5 62.5t163 -62.5t60 -178.5q0 -108 -53 -171t-144 -71q-40 -20 -40 -63q0 -24 13.5 -37.5t35.5 -13.5q36 0 66 29l29 -67q-45 -49 -124 -49q-54 0 -91 27.5t-37 84.5zM257 366q-92 0 -92 -134
q0 -72 22.5 -106t69.5 -34q91 0 91 140q0 134 -91 134z" />
    <glyph glyph-name="uni004F02DB00AF" unicode="&#x1ec;" horiz-adv-x="641" 
d="M471 664h-301v108h301v-108zM209 -99q0 56 40 94q-99 20 -153.5 96.5t-54.5 202.5q0 147 73.5 227t205.5 80t206 -80t74 -227q0 -135 -63.5 -213.5t-177.5 -89.5q-41 -20 -41 -64q0 -24 13 -37.5t36 -13.5q35 0 65 29l29 -67q-43 -49 -124 -49q-54 0 -91 27.5t-37 84.5z
M320 480q-68 0 -103 -49.5t-35 -138.5t35 -138t103 -49q69 0 104 49t35 138t-35 138.5t-104 49.5z" />
    <glyph glyph-name="oogonekmacron" unicode="&#x1ed;" horiz-adv-x="513" 
d="M404 539h-294v108h294v-108zM135 -99q0 59 44 98q-69 21 -107.5 81.5t-38.5 151.5q0 116 60.5 178.5t163.5 62.5t163 -62.5t60 -178.5q0 -108 -53 -171t-144 -71q-40 -20 -40 -63q0 -24 13.5 -37.5t35.5 -13.5q36 0 66 29l29 -67q-45 -49 -124 -49q-54 0 -91 27.5
t-37 84.5zM257 366q-92 0 -92 -134q0 -72 22.5 -106t69.5 -34q91 0 91 140q0 134 -91 134z" />
    <glyph glyph-name="Ezhcaron" unicode="&#x1ee;" horiz-adv-x="502" 
d="M149 273l86 126q15 22 31 40.5t24 25.5l8 7v4q-28 -5 -80 -5h-179v118h422v-95l-178 -235v-3q97 -6 145.5 -66.5t48.5 -149.5q0 -101 -63.5 -160t-174.5 -59q-105 0 -169.5 46.5t-80.5 133.5l114 58q9 -66 44 -100t89 -34q53 0 81.5 29.5t28.5 81.5q0 63 -48 102.5
t-149 42.5v92zM304 646h-85l-135 145h125l30 -31q8 -8 13 -15.5t6 -10.5l1 -4h4q3 12 20 30l31 31h124z" />
    <glyph glyph-name="ezhcaron" unicode="&#x1ef;" horiz-adv-x="429" 
d="M117 224l46 60q16 21 32.5 39.5t24.5 26.5l8 7v4q-30 -5 -82 -5h-117v106h355v-84l-146 -173v-3q77 -6 118.5 -54.5t41.5 -122.5q0 -85 -57 -131.5t-158 -46.5q-80 0 -132 36.5t-65 103.5l124 47q3 -40 26.5 -61.5t58.5 -21.5q32 0 52.5 19.5t20.5 50.5q0 104 -151 121
v82zM257 524h-84l-135 159h123l32 -35q8 -9 13 -17.5t6 -12.5l1 -3h4q1 12 20 33l32 35h123z" />
    <glyph glyph-name="jcaron" unicode="&#x1f0;" horiz-adv-x="259" 
d="M169 524h-84l-135 159h123l32 -35q8 -9 13 -17.5t6 -12.5l1 -3h4q1 12 20 33l32 35h123zM63 462h133v-457q0 -111 -71 -163.5t-192 -43.5v113q68 -10 99 14t31 101v436z" />
    <glyph glyph-name="jcaron" unicode="&#xe10c;" horiz-adv-x="259" 
d="M169 524h-84l-135 159h123l32 -35q8 -9 13 -17.5t6 -12.5l1 -3h4q1 12 20 33l32 35h123zM63 462h133v-457q0 -111 -71 -163.5t-192 -43.5v113q68 -10 99 14t31 101v436z" />
    <glyph glyph-name="Gacute" unicode="&#x1f4;" horiz-adv-x="629" 
d="M318 314h254v-314h-84l-22 66q-44 -78 -162 -78q-120 0 -191.5 77t-71.5 227q0 147 76 228t212 81q87 0 148.5 -39t91.5 -110l-131 -64q-28 93 -114 93q-57 0 -100 -45t-43 -146q0 -86 35 -138.5t110 -52.5q57 0 86.5 24t29.5 63v20h-124v108zM384 647h-123l64 143h168z
" />
    <glyph glyph-name="gacute" unicode="&#x1f5;" horiz-adv-x="502" 
d="M240 473q79 0 131 -29q22 22 35 70l105 -35q-4 -32 -28.5 -55t-55.5 -32q21 -33 21 -82q0 -77 -59.5 -118t-152.5 -41q-40 0 -56 6q-22 -14 -22 -38q0 -28 37 -28h132q77 0 120 -37.5t43 -98.5q0 -47 -22.5 -81t-62.5 -52t-84.5 -25.5t-98.5 -7.5q-216 0 -216 116
q0 84 122 93q-33 2 -54 26t-21 56q0 29 20 54.5t58 36.5q-49 19 -72.5 52t-23.5 87q0 79 55.5 121t149.5 42zM129 -69q0 -53 108 -53q69 0 98.5 13t29.5 41q0 21 -13.5 30t-43.5 9h-114q-65 0 -65 -40zM170 310q0 -32 18 -51.5t52 -19.5q71 0 71 71q0 72 -71 72
q-70 -1 -70 -72zM311 526h-122l70 153h168z" />
    <glyph glyph-name="Ngrave" unicode="&#x1f8;" horiz-adv-x="676" 
d="M205 589l208 -285q15 -20 27 -39.5t17 -29.5l5 -10h4q-3 50 -3 125v239h136v-589h-124l-208 280q-17 22 -31 44t-20 32l-5 11h-4q6 -48 6 -133v-234h-136v589h128zM407 647h-122l-110 143h168z" />
    <glyph glyph-name="ngrave" unicode="&#x1f9;" horiz-adv-x="535" 
d="M177 462l16 -89q36 100 148 100q58 0 97 -36.5t39 -109.5v-327h-134v277q0 84 -62 84q-84 0 -84 -107v-254h-134v462h114zM340 526h-121l-117 153h168z" />
    <glyph glyph-name="uni004102DA00B4" unicode="&#x1fa;" horiz-adv-x="616" 
d="M460 0l-43 123h-223l-42 -123h-142l213 589h168l215 -589h-146zM255 303l-23 -67h145l-24 66q-15 43 -26.5 85t-15.5 63l-4 20h-4q-15 -72 -48 -167zM305 619q-54 0 -84.5 32t-30.5 80q0 45 32 76.5t83 31.5t83 -31.5t32 -76.5q0 -48 -30.5 -80t-84.5 -32zM305 779
q-23 0 -36 -13.5t-13 -35.5q0 -20 13 -34t36 -14t36 14t13 34q0 22 -13 35.5t-36 13.5zM367 871h-123l64 143h168z" />
    <glyph glyph-name="aringacute" unicode="&#x1fb;" horiz-adv-x="501" 
d="M289 145v47q-127 4 -127 -63q0 -21 13.5 -33.5t37.5 -12.5q30 0 53 15.5t23 46.5zM421 320v-180q0 -42 34 -42q13 0 29 7v-97q-27 -17 -76 -17q-88 0 -110 73q-28 -76 -134 -76q-62 0 -99 34t-37 93q0 79 65 117.5t196 31.5v44q0 64 -54 64q-55 0 -58 -68l-133 25
q5 71 59 107.5t137 36.5q88 0 134.5 -38.5t46.5 -114.5zM242 501q-54 0 -84.5 32t-30.5 80q0 45 32 77t83 32t83 -32t32 -77q0 -48 -30.5 -80t-84.5 -32zM242 662q-23 0 -36 -14t-13 -36q0 -20 13 -34t36 -14t36 14t13 34q0 22 -13 36t-36 14zM296 752h-123l64 143h168z" />
    <glyph glyph-name="AEacute" unicode="&#x1fc;" horiz-adv-x="876" 
d="M826 0h-395v123h-203l-77 -123h-149l351 589h473v-118h-259v-117h229v-113h-229v-123h259v-118zM433 490l-146 -254h144v94q0 45 1.5 85t3.5 57l1 18h-4zM615 647h-123l64 143h168z" />
    <glyph glyph-name="aeacute" unicode="&#x1fd;" horiz-adv-x="739" 
d="M510 96q55 0 81 59l114 -40q-17 -66 -70.5 -96.5t-127.5 -30.5q-110 0 -170 72q-44 -72 -161 -72q-68 0 -108 33.5t-40 93.5q0 76 64 117.5t195 42.5q3 24 9 43q-7 54 -60 54q-54 0 -57 -68l-134 25q5 71 60 107.5t139 36.5q82 0 128 -41q55 41 137 41q93 0 144 -57.5
t51 -145.5q0 -39 -6 -69h-278q1 -47 23.5 -76t66.5 -29zM421 275h152q1 6 1 23q0 34 -17.5 55t-50.5 21q-37 0 -60 -29t-25 -70zM220 85q25 0 46.5 13t29.5 36q-10 34 -11 67q-115 -3 -115 -66q0 -23 13 -36.5t37 -13.5zM415 526h-122l70 153h168z" />
    <glyph glyph-name="Oslashacute" unicode="&#x1fe;" horiz-adv-x="641" 
d="M91 -12l-46 40l53 60q-57 77 -57 206q0 147 73.5 227t205.5 80q110 0 182 -58l47 54l48 -40l-53 -59q56 -79 56 -204q0 -147 -74 -226.5t-206 -79.5q-110 0 -180 56zM458 292q0 52 -13 94l-218 -245q34 -36 93 -36q68 0 103 49t35 138zM320 480q-68 0 -102.5 -49.5
t-34.5 -138.5q0 -54 12 -94l218 245q-35 37 -93 37zM374 647h-123l64 143h168z" />
    <glyph glyph-name="oslashacute" unicode="&#x1ff;" horiz-adv-x="513" 
d="M73 -15l-44 41l46 49q-42 62 -42 157q0 116 60.5 178.5t163.5 62.5q86 0 144 -46l43 47l47 -41l-49 -52q38 -62 38 -149q0 -115 -60.5 -179.5t-162.5 -64.5q-84 0 -141 43zM311 526h-122l70 153h168zM257 366q-92 0 -92 -134q0 -34 4 -55l151 163q-23 26 -63 26zM348 232
q0 24 -3 44l-150 -160q23 -24 62 -24q91 0 91 140z" />
    <glyph glyph-name="Adoublegrave" unicode="&#x200;" horiz-adv-x="616" 
d="M460 0l-43 123h-223l-42 -123h-142l213 589h168l215 -589h-146zM255 303l-23 -67h145l-24 66q-15 43 -26.5 85t-15.5 63l-4 20h-4q-15 -72 -48 -167zM444 647h-95l-98 143h141zM279 647h-104l-117 143h150z" />
    <glyph glyph-name="edoublegrave" unicode="&#x201;" horiz-adv-x="488" 
d="M259 91q62 0 81 63l114 -39q-17 -66 -70 -96.5t-128 -30.5q-101 0 -162 63t-61 173q0 118 60 183.5t165 65.5q95 0 145 -56t50 -149q0 -32 -6 -60h-285q2 -54 27 -85.5t70 -31.5zM166 282h159q1 6 1 16q0 34 -19 55t-54 21q-37 0 -60 -25.5t-27 -66.5zM394 526h-95
l-98 153h141zM229 526h-104l-117 153h150z" />
    <glyph glyph-name="edoublegrave" unicode="&#x205;" horiz-adv-x="488" 
d="M259 91q62 0 81 63l114 -39q-17 -66 -70 -96.5t-128 -30.5q-101 0 -162 63t-61 173q0 118 60 183.5t165 65.5q95 0 145 -56t50 -149q0 -32 -6 -60h-285q2 -54 27 -85.5t70 -31.5zM166 282h159q1 6 1 16q0 34 -19 55t-54 21q-37 0 -60 -25.5t-27 -66.5zM394 526h-95
l-98 153h141zM229 526h-104l-117 153h150z" />
    <glyph glyph-name="Ainvertedbreve" unicode="&#x202;" horiz-adv-x="616" 
d="M460 0l-43 123h-223l-42 -123h-142l213 589h168l215 -589h-146zM255 303l-23 -67h145l-24 66q-15 43 -26.5 85t-15.5 63l-4 20h-4q-15 -72 -48 -167zM305 798q76 0 113 -39t37 -109h-99q-1 28 -12 41t-39 13t-39 -13t-12 -41h-99q0 70 37 109t113 39z" />
    <glyph glyph-name="ainvertedbreve" unicode="&#x203;" horiz-adv-x="501" 
d="M289 145v47q-127 4 -127 -63q0 -21 13.5 -33.5t37.5 -12.5q30 0 53 15.5t23 46.5zM421 320v-180q0 -42 34 -42q13 0 29 7v-97q-27 -17 -76 -17q-88 0 -110 73q-28 -76 -134 -76q-62 0 -99 34t-37 93q0 79 65 117.5t196 31.5v44q0 64 -54 64q-55 0 -58 -68l-133 25
q5 71 59 107.5t137 36.5q88 0 134.5 -38.5t46.5 -114.5zM237 686q75 0 112.5 -44t37.5 -114h-99q-1 32 -11 47t-40 15q-29 0 -39.5 -15t-11.5 -47h-99q0 70 37.5 114t112.5 44z" />
    <glyph glyph-name="Edoublegrave" unicode="&#x204;" horiz-adv-x="522" 
d="M472 118v-118h-395v589h395v-118h-259v-117h228v-113h-228v-123h259zM411 647h-95l-98 143h141zM246 647h-104l-117 143h150z" />
    <glyph glyph-name="Einvertedbreve" unicode="&#x206;" horiz-adv-x="522" 
d="M472 118v-118h-395v589h395v-118h-259v-117h228v-113h-228v-123h259zM270 798q76 0 113 -39t37 -109h-99q-1 28 -12 41t-39 13t-39 -13t-12 -41h-99q0 70 37 109t113 39z" />
    <glyph glyph-name="einvertedbreve" unicode="&#x207;" horiz-adv-x="488" 
d="M259 91q62 0 81 63l114 -39q-17 -66 -70 -96.5t-128 -30.5q-101 0 -162 63t-61 173q0 118 60 183.5t165 65.5q95 0 145 -56t50 -149q0 -32 -6 -60h-285q2 -54 27 -85.5t70 -31.5zM166 282h159q1 6 1 16q0 34 -19 55t-54 21q-37 0 -60 -25.5t-27 -66.5zM254 686
q75 0 112.5 -44t37.5 -114h-99q-1 32 -11 47t-40 15q-29 0 -39.5 -15t-11.5 -47h-99q0 70 37.5 114t112.5 44z" />
    <glyph glyph-name="Idoublegrave" unicode="&#x208;" horiz-adv-x="290" 
d="M77 589h136v-589h-136v589zM281 647h-95l-98 143h141zM116 647h-104l-117 143h150z" />
    <glyph glyph-name="idoublegrave" unicode="&#x209;" horiz-adv-x="260" 
d="M63 462h134v-462h-134v462zM269 526h-95l-98 153h141zM104 526h-104l-117 153h150z" />
    <glyph glyph-name="Iinvertedbreve" unicode="&#x20a;" horiz-adv-x="290" 
d="M77 589h136v-589h-136v589zM145 798q76 0 113 -39t37 -109h-99q-1 28 -12 41t-39 13t-39 -13t-12 -41h-99q0 70 37 109t113 39z" />
    <glyph glyph-name="iinvertedbreve" unicode="&#x20b;" horiz-adv-x="260" 
d="M63 462h134v-462h-134v462zM130 686q75 0 112.5 -44t37.5 -114h-99q-1 32 -11 47t-40 15q-29 0 -39.5 -15t-11.5 -47h-99q0 70 37.5 114t112.5 44z" />
    <glyph glyph-name="Odoublegrave" unicode="&#x20c;" horiz-adv-x="641" 
d="M320 -12q-132 0 -205.5 79.5t-73.5 226.5t73.5 227t205.5 80t206 -80t74 -227t-74 -226.5t-206 -79.5zM320 480q-68 0 -103 -49.5t-35 -138.5t35 -138t103 -49q69 0 104 49t35 138t-35 138.5t-104 49.5zM457 647h-95l-98 143h141zM292 647h-104l-117 143h150z" />
    <glyph glyph-name="odoublegrave" unicode="&#x20d;" horiz-adv-x="513" 
d="M257 -12q-103 0 -163.5 64.5t-60.5 179.5q0 116 60.5 178.5t163.5 62.5t163 -62.5t60 -178.5q0 -115 -60.5 -179.5t-162.5 -64.5zM257 366q-92 0 -92 -134q0 -72 22.5 -106t69.5 -34q91 0 91 140q0 134 -91 134zM396 526h-95l-98 153h141zM231 526h-104l-117 153h150z
" />
    <glyph glyph-name="Oinvertedbreve" unicode="&#x20e;" horiz-adv-x="641" 
d="M320 -12q-132 0 -205.5 79.5t-73.5 226.5t73.5 227t205.5 80t206 -80t74 -227t-74 -226.5t-206 -79.5zM320 480q-68 0 -103 -49.5t-35 -138.5t35 -138t103 -49q69 0 104 49t35 138t-35 138.5t-104 49.5zM320 798q76 0 113 -39t37 -109h-99q-1 28 -12 41t-39 13t-39 -13
t-12 -41h-99q0 70 37 109t113 39z" />
    <glyph glyph-name="oinvertedbreve" unicode="&#x20f;" horiz-adv-x="513" 
d="M257 -12q-103 0 -163.5 64.5t-60.5 179.5q0 116 60.5 178.5t163.5 62.5t163 -62.5t60 -178.5q0 -115 -60.5 -179.5t-162.5 -64.5zM257 366q-92 0 -92 -134q0 -72 22.5 -106t69.5 -34q91 0 91 140q0 134 -91 134zM256 686q75 0 112.5 -44t37.5 -114h-99q-1 32 -11 47
t-40 15q-29 0 -39.5 -15t-11.5 -47h-99q0 70 37.5 114t112.5 44z" />
    <glyph glyph-name="Rinvertedbreve" unicode="&#x212;" horiz-adv-x="582" 
d="M555 0h-151q-20 16 -31 61l-22 88q-9 36 -26.5 47.5t-53.5 11.5h-58v-208h-136v589h232q214 0 214 -180q0 -66 -35 -104t-94 -44v-2q41 -7 64 -26.5t34 -59.5l30 -110q10 -39 33 -63zM213 474v-154h87q84 0 84 77t-84 77h-87zM278 798q76 0 113 -39t37 -109h-99
q-1 28 -12 41t-39 13t-39 -13t-12 -41h-99q0 70 37 109t113 39z" />
    <glyph glyph-name="rinvertedbreve" unicode="&#x213;" horiz-adv-x="394" 
d="M382 472l-15 -148q-23 8 -52 8q-48 0 -83 -28t-35 -93v-211h-134v462h116l16 -127q17 68 59.5 105t127.5 32zM222 686q75 0 112.5 -44t37.5 -114h-99q-1 32 -11 47t-40 15q-29 0 -39.5 -15t-11.5 -47h-99q0 70 37.5 114t112.5 44z" />
    <glyph glyph-name="Udoublegrave" unicode="&#x214;" horiz-adv-x="608" 
d="M412 589h135v-392q0 -111 -67 -160t-176 -49t-176 49t-67 160v392h136v-354q0 -68 23.5 -101t83.5 -33q61 0 84.5 33.5t23.5 101.5v353zM440 647h-95l-98 143h141zM275 647h-104l-117 143h150z" />
    <glyph glyph-name="udoublegrave" unicode="&#x215;" horiz-adv-x="531" 
d="M352 0l-16 86q-25 -98 -143 -98q-139 0 -139 149v325h134v-287q0 -86 63 -86q37 0 60 31t23 94v248h134v-462h-116zM400 526h-95l-98 153h141zM235 526h-104l-117 153h150z" />
    <glyph glyph-name="Uinvertedbreve" unicode="&#x216;" horiz-adv-x="608" 
d="M412 589h135v-392q0 -111 -67 -160t-176 -49t-176 49t-67 160v392h136v-354q0 -68 23.5 -101t83.5 -33q61 0 84.5 33.5t23.5 101.5v353zM304 798q76 0 113 -39t37 -109h-99q-1 28 -12 41t-39 13t-39 -13t-12 -41h-99q0 70 37 109t113 39z" />
    <glyph glyph-name="uinvertedbreve" unicode="&#x217;" horiz-adv-x="531" 
d="M352 0l-16 86q-25 -98 -143 -98q-139 0 -139 149v325h134v-287q0 -86 63 -86q37 0 60 31t23 94v248h134v-462h-116zM261 686q75 0 112.5 -44t37.5 -114h-99q-1 32 -11 47t-40 15q-29 0 -39.5 -15t-11.5 -47h-99q0 70 37.5 114t112.5 44z" />
    <glyph glyph-name="Scommaaccent" unicode="&#x218;" horiz-adv-x="515" 
d="M22 132l124 55q8 -43 38 -69t72 -26q35 0 56.5 14.5t21.5 43.5t-20.5 45.5t-77.5 34.5q-103 33 -147 76.5t-44 118.5q0 92 59.5 134.5t147.5 42.5q207 0 223 -153l-135 -34q-4 37 -28 56t-57 19q-30 0 -49 -14t-19 -41q0 -29 22.5 -45t78.5 -33q100 -31 143.5 -72.5
t43.5 -121.5q0 -90 -63.5 -132.5t-165.5 -42.5q-91 0 -146.5 33.5t-77.5 110.5zM345 -141q0 -114 -143 -114v45q34 1 50 9.5t16 29.5q-29 -6 -50.5 9t-21.5 46q0 32 20 48.5t50 16.5q35 0 57 -25t22 -65z" />
    <glyph glyph-name="scommaaccent" unicode="&#x219;" horiz-adv-x="445" 
d="M18 107l110 44q14 -69 90 -69q63 0 63 40q0 19 -13.5 29.5t-45.5 18.5l-68 16q-118 31 -118 137q0 81 53 115.5t135 34.5q173 0 183 -130l-125 -18q-4 27 -19 38t-45 11q-24 0 -38 -10t-14 -28q0 -33 45 -42l65 -14q138 -29 138 -149q0 -74 -53.5 -108.5t-144.5 -34.5
q-88 0 -136.5 27.5t-61.5 91.5zM299 -141q0 -114 -143 -114v45q34 1 50 9.5t16 29.5q-29 -6 -50.5 9t-21.5 46q0 32 20 48.5t50 16.5q35 0 57 -25t22 -65z" />
    <glyph glyph-name="Hcaron" unicode="&#x21e;" horiz-adv-x="652" 
d="M213 0h-136v589h136v-231h226v231h136v-589h-136v240h-226v-240zM369 646h-85l-135 145h125l30 -31q8 -8 13 -15.5t6 -10.5l1 -4h4q3 12 20 30l31 31h124z" />
    <glyph glyph-name="hcaron" unicode="&#x21f;" horiz-adv-x="535" 
d="M197 668v-294q35 99 144 99q58 0 97 -36.5t39 -109.5v-327h-134v277q0 84 -62 84q-84 0 -84 -106v-255h-134v668h134zM175 711h-85l-135 145h125l30 -31q8 -8 13 -15.5t6 -11.5l1 -3h4q3 12 20 30l31 31h124z" />
    <glyph glyph-name="Adotabove" unicode="&#x226;" horiz-adv-x="616" 
d="M460 0l-43 123h-223l-42 -123h-142l213 589h168l215 -589h-146zM255 303l-23 -67h145l-24 66q-15 43 -26.5 85t-15.5 63l-4 20h-4q-15 -72 -48 -167zM224 721q0 37 23 57.5t58 20.5q37 0 60.5 -20.5t23.5 -57.5q0 -36 -23.5 -56t-60.5 -20q-35 0 -58 20t-23 56z" />
    <glyph glyph-name="adotabove" unicode="&#x227;" horiz-adv-x="501" 
d="M289 145v47q-127 4 -127 -63q0 -21 13.5 -33.5t37.5 -12.5q30 0 53 15.5t23 46.5zM421 320v-180q0 -42 34 -42q13 0 29 7v-97q-27 -17 -76 -17q-88 0 -110 73q-28 -76 -134 -76q-62 0 -99 34t-37 93q0 79 65 117.5t196 31.5v44q0 64 -54 64q-55 0 -58 -68l-133 25
q5 71 59 107.5t137 36.5q88 0 134.5 -38.5t46.5 -114.5zM153 595q0 37 23 57.5t58 20.5q38 0 61 -20.5t23 -57.5q0 -36 -23 -56t-61 -20q-35 0 -58 20.5t-23 55.5z" />
    <glyph glyph-name="Otildemacron" unicode="&#x22c;" horiz-adv-x="641" 
d="M320 -12q-132 0 -205.5 79.5t-73.5 226.5t73.5 227t205.5 80t206 -80t74 -227t-74 -226.5t-206 -79.5zM320 480q-68 0 -103 -49.5t-35 -138.5t35 -138t103 -49q69 0 104 49t35 138t-35 138.5t-104 49.5zM397 635q-37 0 -74 22q-43 25 -58 25q-16 0 -25.5 -12.5
t-5.5 -36.5h-74q-28 58 0 107.5t87 49.5q31 0 68 -21q48 -27 62 -27q32 0 26 46h78q26 -61 1 -107t-85 -46zM471 834h-301v108h301v-108z" />
    <glyph glyph-name="otildemacron" unicode="&#x22d;" horiz-adv-x="513" 
d="M257 -12q-103 0 -163.5 64.5t-60.5 179.5q0 116 60.5 178.5t163.5 62.5t163 -62.5t60 -178.5q0 -115 -60.5 -179.5t-162.5 -64.5zM257 366q-92 0 -92 -134q0 -72 22.5 -106t69.5 -34q91 0 91 140q0 134 -91 134zM334 506q-36 0 -74 23q-45 25 -58 25q-16 0 -25.5 -12.5
t-5.5 -36.5h-74q-28 57 0 106.5t87 49.5q33 0 68 -20q47 -28 62 -28q33 0 26 46h78q26 -61 1 -107t-85 -46zM404 700h-294v108h294v-108z" />
    <glyph glyph-name="Odotabove" unicode="&#x22e;" horiz-adv-x="641" 
d="M320 -12q-132 0 -205.5 79.5t-73.5 226.5t73.5 227t205.5 80t206 -80t74 -227t-74 -226.5t-206 -79.5zM320 480q-68 0 -103 -49.5t-35 -138.5t35 -138t103 -49q69 0 104 49t35 138t-35 138.5t-104 49.5zM238 722q0 37 23 57.5t58 20.5q37 0 60.5 -20.5t23.5 -57.5
q0 -36 -23.5 -56t-60.5 -20q-35 0 -58 20t-23 56z" />
    <glyph glyph-name="odotabove" unicode="&#x22f;" horiz-adv-x="513" 
d="M257 -12q-103 0 -163.5 64.5t-60.5 179.5q0 116 60.5 178.5t163.5 62.5t163 -62.5t60 -178.5q0 -115 -60.5 -179.5t-162.5 -64.5zM257 366q-92 0 -92 -134q0 -72 22.5 -106t69.5 -34q91 0 91 140q0 134 -91 134zM175 595q0 37 23 57.5t58 20.5q38 0 61 -20.5t23 -57.5
q0 -36 -23 -56t-61 -20q-35 0 -58 20.5t-23 55.5z" />
    <glyph glyph-name="odotabovemacron" unicode="&#x231;" horiz-adv-x="513" 
d="M257 -12q-103 0 -163.5 64.5t-60.5 179.5q0 116 60.5 178.5t163.5 62.5t163 -62.5t60 -178.5q0 -115 -60.5 -179.5t-162.5 -64.5zM257 366q-92 0 -92 -134q0 -72 22.5 -106t69.5 -34q91 0 91 140q0 134 -91 134zM404 700h-294v108h294v-108zM175 590q0 37 23 57.5
t58 20.5q38 0 61 -20.5t23 -57.5q0 -36 -23 -56t-61 -20q-35 0 -58 20.5t-23 55.5z" />
    <glyph glyph-name="odotabovemacron" unicode="&#xe11e;" horiz-adv-x="513" 
d="M257 -12q-103 0 -163.5 64.5t-60.5 179.5q0 116 60.5 178.5t163.5 62.5t163 -62.5t60 -178.5q0 -115 -60.5 -179.5t-162.5 -64.5zM257 366q-92 0 -92 -134q0 -72 22.5 -106t69.5 -34q91 0 91 140q0 134 -91 134zM404 700h-294v108h294v-108zM175 590q0 37 23 57.5
t58 20.5q38 0 61 -20.5t23 -57.5q0 -36 -23 -56t-61 -20q-35 0 -58 20.5t-23 55.5z" />
    <glyph glyph-name="Ymacron" unicode="&#x232;" horiz-adv-x="545" 
d="M164 589l69 -140q16 -35 27 -67t14 -46l3 -15h4q6 51 43 127l68 141h143l-188 -393v-196h-136v196l-201 393h154zM422 664h-301v108h301v-108z" />
    <glyph glyph-name="ymacron" unicode="&#x233;" horiz-adv-x="484" 
d="M148 462l60 -210q12 -40 20 -77.5t10 -54.5l2 -17h4q6 59 33 148l64 211h141l-183 -503q-37 -100 -84.5 -133.5t-126.5 -33.5q-37 0 -83 11l20 118q27 -16 61 -16q32 0 52.5 15.5t34.5 53.5l-171 488h146zM391 539h-294v108h294v-108z" />
    <glyph glyph-name="dotlessj" unicode="&#x237;" horiz-adv-x="259" 
d="M63 462h133v-457q0 -111 -71 -163.5t-192 -43.5v113q68 -10 99 14t31 101v436z" />
    <glyph glyph-name="schwa" unicode="&#x259;" horiz-adv-x="488" 
d="M230 365q-57 0 -82 -62l-114 37q17 67 71 100t127 33q101 0 162 -63t61 -173q0 -119 -59.5 -184t-165.5 -65q-95 0 -145 56t-50 149q0 30 6 60h278q-1 51 -23.5 81.5t-65.5 30.5zM318 177h-153q-1 -5 -1 -15q0 -34 18 -55t51 -21q38 0 60 25t25 66z" />
    <glyph glyph-name="ezh" unicode="&#x292;" horiz-adv-x="429" 
d="M117 224l46 60q16 21 32.5 39.5t24.5 26.5l8 7v4q-30 -5 -82 -5h-117v106h355v-84l-146 -173v-3q77 -6 118.5 -54.5t41.5 -122.5q0 -85 -57 -131.5t-158 -46.5q-80 0 -132 36.5t-65 103.5l124 47q3 -40 26.5 -61.5t58.5 -21.5q32 0 52.5 19.5t20.5 50.5q0 104 -151 121
v82z" />
    <glyph glyph-name="circumflex" unicode="&#x2c6;" horiz-adv-x="514" 
d="M215 683h84l135 -159h-123l-32 34q-8 9 -13 17.5t-6 12.5l-1 3h-4q-1 -12 -20 -33l-32 -34h-123z" />
    <glyph glyph-name="caron" unicode="&#x2c7;" horiz-adv-x="514" 
d="M299 524h-84l-135 159h123l32 -35q8 -9 13 -17.5t6 -12.5l1 -3h4q1 12 20 33l32 35h123z" />
    <glyph glyph-name="breve" unicode="&#x2d8;" horiz-adv-x="460" 
d="M230 520q-75 0 -112.5 44t-37.5 114h99q1 -32 11.5 -47t39.5 -15q30 0 40 15t11 47h99q0 -70 -37.5 -114t-112.5 -44z" />
    <glyph glyph-name="dotaccent" unicode="&#x2d9;" horiz-adv-x="325" 
d="M80 598q0 37 23 57.5t58 20.5q38 0 61 -20.5t23 -57.5q0 -36 -23 -56t-61 -20q-35 0 -58 20.5t-23 55.5z" />
    <glyph glyph-name="ring" unicode="&#x2da;" horiz-adv-x="390" 
d="M195 506q-54 0 -84.5 32t-30.5 80q0 45 32 77t83 32t83 -32t32 -77q0 -48 -30.5 -80t-84.5 -32zM195 667q-23 0 -36 -14t-13 -36q0 -20 13 -34t36 -14t36 14t13 34q0 22 -13 36t-36 14z" />
    <glyph glyph-name="ogonek" unicode="&#x2db;" horiz-adv-x="410" 
d="M68 -99q0 39 19 69t48 45t54.5 22.5t45.5 8.5l34 -46q-40 0 -66.5 -19t-26.5 -54q0 -24 13.5 -37.5t36.5 -13.5q35 0 65 29l29 -67q-45 -49 -124 -49q-54 0 -91 27.5t-37 84.5z" />
    <glyph glyph-name="tilde" unicode="&#x2dc;" horiz-adv-x="509" 
d="M331 521q-36 0 -74 23q-45 25 -58 25q-16 0 -25.5 -12.5t-5.5 -36.5h-74q-28 57 0 106.5t87 49.5q33 0 68 -20q47 -28 62 -28q33 0 26 46h78q26 -61 1 -107t-85 -46z" />
    <glyph glyph-name="hungarumlaut" unicode="&#x2dd;" horiz-adv-x="546" 
d="M175 526h-95l52 153h141zM350 526h-104l70 153h150z" />
    <glyph glyph-name="uni0312" unicode="&#x312;" horiz-adv-x="309" 
d="M80 735q0 114 143 114v-45q-34 -1 -50 -9.5t-16 -29.5q29 6 50.5 -9t21.5 -46q0 -32 -19.5 -48.5t-50.5 -16.5q-35 0 -57 25t-22 65z" />
    <glyph glyph-name="uni0320" unicode="&#x320;" horiz-adv-x="454" 
d="M374 -192h-294v107h294v-107z" />
    <glyph glyph-name="uni0323" unicode="&#x323;" horiz-adv-x="325" 
d="M80 -127q0 37 23 57.5t58 20.5q37 0 60.5 -20.5t23.5 -57.5q0 -36 -23.5 -56t-60.5 -20q-35 0 -58 20t-23 56z" />
    <glyph glyph-name="uni0329" unicode="&#x329;" horiz-adv-x="291" 
d="M80 -214v171h131v-161z" />
    <glyph glyph-name="pi" unicode="&#x3c0;" horiz-adv-x="706" 
d="M159 481h469v-100h-98v-231q0 -51 38 -51q37 0 64 46l44 -80q-34 -77 -141 -77q-69 0 -104.5 34t-35.5 118v241h-86l-48 -381h-135l50 381h-12q-47 0 -53 -65h-101q0 165 149 165z" />
    <glyph glyph-name="uni0E3F" unicode="&#xe3f;" horiz-adv-x="570" 
d="M270 -106v106h-188v481h188v93h50v-93h29q74 0 116 -30.5t42 -90.5q0 -96 -97 -112v-4q56 -6 87 -35.5t31 -77.5q0 -131 -179 -131h-29v-106h-50zM325 201h-5v-109h3q37 0 54.5 12t17.5 44q0 53 -70 53zM217 282h53v110h-53v-110zM217 201v-109h53v109h-53zM379 337
q0 52 -59 55v-110q59 0 59 55z" />
    <glyph glyph-name="Ddotbelow" unicode="&#x1e0c;" horiz-adv-x="622" 
d="M213 115h59q83 0 125 41t42 137q0 100 -40.5 140.5t-118.5 40.5h-67v-359zM285 0h-208v589h217q131 0 209 -70t78 -218q0 -155 -80 -228t-216 -73zM205 -132q0 37 23 57.5t58 20.5q37 0 60.5 -20.5t23.5 -57.5q0 -36 -23.5 -56t-60.5 -20q-35 0 -58 20t-23 56z" />
    <glyph glyph-name="ddotbelow" unicode="&#x1e0d;" 
d="M361 192v86q0 48 -26 72t-64 24q-45 0 -74.5 -35.5t-29.5 -111.5q0 -65 27 -100.5t75 -35.5q37 0 64.5 26.5t27.5 74.5zM360 401v267h134v-668h-116l-17 80q-22 -92 -144 -92q-80 0 -132 61.5t-52 171.5q0 119 54 185.5t152 66.5q45 0 78.5 -19.5t42.5 -52.5zM181 -132
q0 37 23 57.5t58 20.5q37 0 60.5 -20.5t23.5 -57.5q0 -36 -23.5 -56t-60.5 -20q-35 0 -58 20t-23 56z" />
    <glyph glyph-name="Dcedilla" unicode="&#x1e10;" horiz-adv-x="622" 
d="M394 -118q0 -45 -32 -69t-83 -24q-72 0 -105 36l25 64q31 -35 65 -35q30 0 30 26q0 34 -51 40l9 80h-175v589h217q131 0 209 -70t78 -218q0 -149 -73 -222t-199 -79l-3 -36q88 -6 88 -82zM213 115h59q83 0 125 41t42 137q0 100 -40.5 140.5t-118.5 40.5h-67v-359z" />
    <glyph glyph-name="dcedilla" unicode="&#x1e11;" 
d="M370 -118q0 -45 -32 -69t-83 -24q-72 0 -105 36l25 64q31 -35 65 -35q30 0 30 26q0 34 -51 40l7 68h-9q-80 0 -132 61.5t-52 171.5q0 119 54 185.5t152 66.5q45 0 78.5 -19.5t42.5 -52.5v267h134v-668h-116l-17 80q-16 -64 -76 -82l-3 -34q88 -6 88 -82zM361 192v86
q0 48 -26 72t-64 24q-45 0 -74.5 -35.5t-29.5 -111.5q0 -65 27 -100.5t75 -35.5q37 0 64.5 26.5t27.5 74.5z" />
    <glyph glyph-name="Hdotbelow" unicode="&#x1e24;" horiz-adv-x="652" 
d="M213 0h-136v589h136v-231h226v231h136v-589h-136v240h-226v-240zM244 -132q0 37 23 57.5t58 20.5q37 0 60.5 -20.5t23.5 -57.5q0 -36 -23.5 -56t-60.5 -20q-35 0 -58 20t-23 56z" />
    <glyph glyph-name="hdotbelow" unicode="&#x1e25;" horiz-adv-x="535" 
d="M197 668v-294q35 99 144 99q58 0 97 -36.5t39 -109.5v-327h-134v277q0 84 -62 84q-84 0 -84 -106v-255h-134v668h134zM188 -132q0 37 23 57.5t58 20.5q37 0 60.5 -20.5t23.5 -57.5q0 -36 -23.5 -56t-60.5 -20q-35 0 -58 20t-23 56z" />
    <glyph glyph-name="Ldotbelow" unicode="&#x1e36;" horiz-adv-x="471" 
d="M77 589h136v-471h230v-118h-366v589zM178 -132q0 37 23 57.5t58 20.5q37 0 60.5 -20.5t23.5 -57.5q0 -36 -23.5 -56t-60.5 -20q-35 0 -58 20t-23 56z" />
    <glyph glyph-name="ldotbelow" unicode="&#x1e37;" horiz-adv-x="289" 
d="M266 115l-7 -112q-45 -12 -77 -12q-56 0 -92 28.5t-36 89.5v559h134v-520q0 -40 42 -40q19 0 36 7zM78 -132q0 37 23 57.5t58 20.5q37 0 60.5 -20.5t23.5 -57.5q0 -36 -23.5 -56t-60.5 -20q-35 0 -58 20t-23 56z" />
    <glyph glyph-name="uni004C032300AF" unicode="&#x1e38;" horiz-adv-x="471" 
d="M77 589h136v-471h230v-118h-366v589zM178 -132q0 37 23 57.5t58 20.5q37 0 60.5 -20.5t23.5 -57.5q0 -36 -23.5 -56t-60.5 -20q-35 0 -58 20t-23 56zM316 664h-301v108h301v-108z" />
    <glyph glyph-name="ldotbelowmacron" unicode="&#x1e39;" horiz-adv-x="289" 
d="M266 115l-7 -112q-45 -12 -77 -12q-56 0 -92 28.5t-36 89.5v559h134v-520q0 -40 42 -40q19 0 36 7zM78 -132q0 37 23 57.5t58 20.5q37 0 60.5 -20.5t23.5 -57.5q0 -36 -23.5 -56t-60.5 -20q-35 0 -58 20t-23 56zM276 732h-301v108h301v-108z" />
    <glyph glyph-name="Mdotbelow" unicode="&#x1e42;" horiz-adv-x="739" 
d="M402 136h-65l-81 135q-14 22 -25 44.5t-15 34.5l-5 11h-4q6 -33 6 -100v-261h-136v589h138l111 -199q15 -26 25.5 -47.5t13.5 -30.5l3 -8h4q9 28 42 86l112 199h136v-589h-135v261l5 100h-4q-14 -41 -44 -90zM288 -132q0 37 23 57.5t58 20.5q37 0 60.5 -20.5t23.5 -57.5
q0 -36 -23.5 -56t-60.5 -20q-35 0 -58 20t-23 56z" />
    <glyph glyph-name="mdotbelow" unicode="&#x1e43;" horiz-adv-x="797" 
d="M457 372q37 101 150 101q60 0 96 -35.5t36 -109.5v-328h-134v277q0 84 -61 84q-76 0 -76 -106v-255h-134v277q0 41 -13.5 62.5t-47.5 21.5q-76 0 -76 -107v-254h-134v462h114l16 -89q36 100 142 100t122 -101zM319 -132q0 37 23 57.5t58 20.5q37 0 60.5 -20.5t23.5 -57.5
q0 -36 -23.5 -56t-60.5 -20q-35 0 -58 20t-23 56z" />
    <glyph glyph-name="Ndotaccent" unicode="&#x1e44;" horiz-adv-x="676" 
d="M205 589l208 -285q15 -20 27 -39.5t17 -29.5l5 -10h4q-3 50 -3 125v239h136v-589h-124l-208 280q-17 22 -31 44t-20 32l-5 11h-4q6 -48 6 -133v-234h-136v589h128zM256 722q0 37 23 57.5t58 20.5q37 0 60.5 -20.5t23.5 -57.5q0 -36 -23.5 -56t-60.5 -20q-35 0 -58 20
t-23 56z" />
    <glyph glyph-name="ndotaccent" unicode="&#x1e45;" horiz-adv-x="535" 
d="M177 462l16 -89q36 100 148 100q58 0 97 -36.5t39 -109.5v-327h-134v277q0 84 -62 84q-84 0 -84 -107v-254h-134v462h114zM189 595q0 37 23 57.5t58 20.5q38 0 61 -20.5t23 -57.5q0 -36 -23 -56t-61 -20q-35 0 -58 20.5t-23 55.5z" />
    <glyph glyph-name="Ndotbelow" unicode="&#x1e46;" horiz-adv-x="676" 
d="M205 589l208 -285q15 -20 27 -39.5t17 -29.5l5 -10h4q-3 50 -3 125v239h136v-589h-124l-208 280q-17 22 -31 44t-20 32l-5 11h-4q6 -48 6 -133v-234h-136v589h128zM256 -132q0 37 23 57.5t58 20.5q37 0 60.5 -20.5t23.5 -57.5q0 -36 -23.5 -56t-60.5 -20q-35 0 -58 20
t-23 56z" />
    <glyph glyph-name="ndotbelow" unicode="&#x1e47;" horiz-adv-x="535" 
d="M177 462l16 -89q36 100 148 100q58 0 97 -36.5t39 -109.5v-327h-134v277q0 84 -62 84q-84 0 -84 -107v-254h-134v462h114zM189 -132q0 37 23 57.5t58 20.5q37 0 60.5 -20.5t23.5 -57.5q0 -36 -23.5 -56t-60.5 -20q-35 0 -58 20t-23 56z" />
    <glyph glyph-name="Rdotbelow" unicode="&#x1e5a;" horiz-adv-x="582" 
d="M555 0h-151q-20 16 -31 61l-22 88q-9 36 -26.5 47.5t-53.5 11.5h-58v-208h-136v589h232q214 0 214 -180q0 -66 -35 -104t-94 -44v-2q41 -7 64 -26.5t34 -59.5l30 -110q10 -39 33 -63zM213 474v-154h87q84 0 84 77t-84 77h-87zM196 -132q0 37 23 57.5t58 20.5
q37 0 60.5 -20.5t23.5 -57.5q0 -36 -23.5 -56t-60.5 -20q-35 0 -58 20t-23 56z" />
    <glyph glyph-name="rdotbelow" unicode="&#x1e5b;" horiz-adv-x="394" 
d="M382 472l-15 -148q-23 8 -52 8q-48 0 -83 -28t-35 -93v-211h-134v462h116l16 -127q17 68 59.5 105t127.5 32zM47 -132q0 37 23 57.5t58 20.5q37 0 60.5 -20.5t23.5 -57.5q0 -36 -23.5 -56t-60.5 -20q-35 0 -58 20t-23 56z" />
    <glyph glyph-name="Rdotbelowmacron" unicode="&#x1e5c;" horiz-adv-x="582" 
d="M555 0h-151q-20 16 -31 61l-22 88q-9 36 -26.5 47.5t-53.5 11.5h-58v-208h-136v589h232q214 0 214 -180q0 -66 -35 -104t-94 -44v-2q41 -7 64 -26.5t34 -59.5l30 -110q10 -39 33 -63zM213 474v-154h87q84 0 84 77t-84 77h-87zM196 -132q0 37 23 57.5t58 20.5
q37 0 60.5 -20.5t23.5 -57.5q0 -36 -23.5 -56t-60.5 -20q-35 0 -58 20t-23 56zM428 664h-301v108h301v-108z" />
    <glyph glyph-name="rdotbelowmacron" unicode="&#x1e5d;" horiz-adv-x="394" 
d="M382 472l-15 -148q-23 8 -52 8q-48 0 -83 -28t-35 -93v-211h-134v462h116l16 -127q17 68 59.5 105t127.5 32zM370 539h-294v108h294v-108zM48 -132q0 37 23 57.5t58 20.5q37 0 60.5 -20.5t23.5 -57.5q0 -36 -23.5 -56t-60.5 -20q-35 0 -58 20t-23 56z" />
    <glyph glyph-name="Sdotbelow" unicode="&#x1e62;" horiz-adv-x="515" 
d="M22 132l124 55q8 -43 38 -69t72 -26q35 0 56.5 14.5t21.5 43.5t-20.5 45.5t-77.5 34.5q-103 33 -147 76.5t-44 118.5q0 92 59.5 134.5t147.5 42.5q207 0 223 -153l-135 -34q-4 37 -28 56t-57 19q-30 0 -49 -14t-19 -41q0 -29 22.5 -45t78.5 -33q100 -31 143.5 -72.5
t43.5 -121.5q0 -90 -63.5 -132.5t-165.5 -42.5q-91 0 -146.5 33.5t-77.5 110.5zM179 -132q0 37 23 57.5t58 20.5q37 0 60.5 -20.5t23.5 -57.5q0 -36 -23.5 -56t-60.5 -20q-35 0 -58 20t-23 56z" />
    <glyph glyph-name="sdotbelow" unicode="&#x1e63;" horiz-adv-x="445" 
d="M18 107l110 44q14 -69 90 -69q63 0 63 40q0 19 -13.5 29.5t-45.5 18.5l-68 16q-118 31 -118 137q0 81 53 115.5t135 34.5q173 0 183 -130l-125 -18q-4 27 -19 38t-45 11q-24 0 -38 -10t-14 -28q0 -33 45 -42l65 -14q138 -29 138 -149q0 -74 -53.5 -108.5t-144.5 -34.5
q-88 0 -136.5 27.5t-61.5 91.5zM141 -132q0 37 23 57.5t58 20.5q37 0 60.5 -20.5t23.5 -57.5q0 -36 -23.5 -56t-60.5 -20q-35 0 -58 20t-23 56z" />
    <glyph glyph-name="Tdotbelow" unicode="&#x1e6c;" horiz-adv-x="479" 
d="M305 0h-134v471h-161v118h459v-118h-164v-471zM157 -132q0 37 23 57.5t58 20.5q37 0 60.5 -20.5t23.5 -57.5q0 -36 -23.5 -56t-60.5 -20q-35 0 -58 20t-23 56z" />
    <glyph glyph-name="tdotbelow" unicode="&#x1e6d;" horiz-adv-x="386" 
d="M348 131l23 -113q-59 -30 -142 -30q-152 0 -152 149v222h-67v103h68v98l134 16v-114h137v-103h-138v-192q0 -36 13.5 -50.5t42.5 -14.5q40 0 81 29zM114 -132q0 37 23 57.5t58 20.5q37 0 60.5 -20.5t23.5 -57.5q0 -36 -23.5 -56t-60.5 -20q-35 0 -58 20t-23 56z" />
    <glyph glyph-name="Wgrave" unicode="&#x1e80;" horiz-adv-x="873" 
d="M521 589l73 -324q8 -37 15 -79t10 -65l3 -23h4q8 84 25 166l66 325h138l-129 -589h-198l-67 291q-8 37 -14 78t-7 64l-2 23h-4q-5 -82 -25 -166l-70 -290h-191l-130 589h144l68 -324q8 -37 14.5 -79t9.5 -65l3 -23h4q9 84 26 166l72 325h162zM505 647h-122l-110 143h168z
" />
    <glyph glyph-name="wgrave" unicode="&#x1e81;" horiz-adv-x="721" 
d="M423 462l51 -183q12 -41 19.5 -86t9.5 -69l2 -25h4q4 85 26 178l43 185h133l-120 -462h-159l-45 165q-8 33 -14 70t-8 58l-2 21h-4q-5 -74 -24 -150l-40 -164h-158l-127 462h136l48 -184q11 -41 18 -86t9 -69l2 -24h4q5 87 27 180l47 183h122zM430 526h-121l-117 153h168
z" />
    <glyph glyph-name="Wacute" unicode="&#x1e82;" horiz-adv-x="873" 
d="M521 589l73 -324q8 -37 15 -79t10 -65l3 -23h4q8 84 25 166l66 325h138l-129 -589h-198l-67 291q-8 37 -14 78t-7 64l-2 23h-4q-5 -82 -25 -166l-70 -290h-191l-130 589h144l68 -324q8 -37 14.5 -79t9.5 -65l3 -23h4q9 84 26 166l72 325h162zM490 647h-123l64 143h168z
" />
    <glyph glyph-name="wacute" unicode="&#x1e83;" horiz-adv-x="721" 
d="M423 462l51 -183q12 -41 19.5 -86t9.5 -69l2 -25h4q4 85 26 178l43 185h133l-120 -462h-159l-45 165q-8 33 -14 70t-8 58l-2 21h-4q-5 -74 -24 -150l-40 -164h-158l-127 462h136l48 -184q11 -41 18 -86t9 -69l2 -24h4q5 87 27 180l47 183h122zM413 526h-122l70 153h168z
" />
    <glyph glyph-name="Wdieresis" unicode="&#x1e84;" horiz-adv-x="873" 
d="M521 589l73 -324q8 -37 15 -79t10 -65l3 -23h4q8 84 25 166l66 325h138l-129 -589h-198l-67 291q-8 37 -14 78t-7 64l-2 23h-4q-5 -82 -25 -166l-70 -290h-191l-130 589h144l68 -324q8 -37 14.5 -79t9.5 -65l3 -23h4q9 84 26 166l72 325h162zM250 723q0 36 21 55.5
t53 19.5q34 0 55 -19.5t21 -55.5q0 -35 -21 -55t-55 -20q-31 0 -52.5 20t-21.5 55zM468 723q0 36 21 55.5t53 19.5q34 0 55 -19.5t21 -55.5t-21.5 -55.5t-54.5 -19.5q-32 0 -53 20t-21 55z" />
    <glyph glyph-name="wdieresis" unicode="&#x1e85;" horiz-adv-x="721" 
d="M423 462l51 -183q12 -41 19.5 -86t9.5 -69l2 -25h4q4 85 26 178l43 185h133l-120 -462h-159l-45 165q-8 33 -14 70t-8 58l-2 21h-4q-5 -74 -24 -150l-40 -164h-158l-127 462h136l48 -184q11 -41 18 -86t9 -69l2 -24h4q5 87 27 180l47 183h122zM174 596q0 36 21 55.5
t53 19.5q34 0 55 -19.5t21 -55.5q0 -35 -21 -55t-55 -20q-31 0 -52.5 20t-21.5 55zM392 596q0 36 21 55.5t53 19.5q34 0 55 -19.5t21 -55.5t-21.5 -55.5t-54.5 -19.5q-32 0 -53 20t-21 55z" />
    <glyph glyph-name="Idotbelow" unicode="&#x1eca;" horiz-adv-x="290" 
d="M77 589h136v-589h-136v589zM63 -132q0 37 23 57.5t58 20.5q37 0 60.5 -20.5t23.5 -57.5q0 -36 -23.5 -56t-60.5 -20q-35 0 -58 20t-23 56z" />
    <glyph glyph-name="idotbelow" unicode="&#x1ecb;" horiz-adv-x="260" 
d="M49 603q0 37 23 57.5t58 20.5q37 0 60 -20.5t23 -57.5q0 -36 -23.5 -56t-59.5 -20q-35 0 -58 20t-23 56zM63 462h134v-462h-134v462zM49 -132q0 37 23 57.5t58 20.5q37 0 60.5 -20.5t23.5 -57.5q0 -36 -23.5 -56t-60.5 -20q-35 0 -58 20t-23 56z" />
    <glyph glyph-name="Odotbelow" unicode="&#x1ecc;" horiz-adv-x="641" 
d="M320 -12q-132 0 -205.5 79.5t-73.5 226.5t73.5 227t205.5 80t206 -80t74 -227t-74 -226.5t-206 -79.5zM320 480q-68 0 -103 -49.5t-35 -138.5t35 -138t103 -49q69 0 104 49t35 138t-35 138.5t-104 49.5zM238 -132q0 37 23 57.5t58 20.5q37 0 60.5 -20.5t23.5 -57.5
q0 -36 -23.5 -56t-60.5 -20q-35 0 -58 20t-23 56z" />
    <glyph glyph-name="odotbelow" unicode="&#x1ecd;" horiz-adv-x="513" 
d="M257 -12q-103 0 -163.5 64.5t-60.5 179.5q0 116 60.5 178.5t163.5 62.5t163 -62.5t60 -178.5q0 -115 -60.5 -179.5t-162.5 -64.5zM257 366q-92 0 -92 -134q0 -72 22.5 -106t69.5 -34q91 0 91 140q0 134 -91 134zM175 -132q0 37 23 57.5t58 20.5q37 0 60.5 -20.5
t23.5 -57.5q0 -36 -23.5 -56t-60.5 -20q-35 0 -58 20t-23 56z" />
    <glyph glyph-name="Udotbelow" unicode="&#x1ee4;" horiz-adv-x="608" 
d="M412 589h135v-392q0 -111 -67 -160t-176 -49t-176 49t-67 160v392h136v-354q0 -68 23.5 -101t83.5 -33q61 0 84.5 33.5t23.5 101.5v353zM222 -132q0 37 23 57.5t58 20.5q37 0 60.5 -20.5t23.5 -57.5q0 -36 -23.5 -56t-60.5 -20q-35 0 -58 20t-23 56z" />
    <glyph glyph-name="udotbelow" unicode="&#x1ee5;" horiz-adv-x="531" 
d="M352 0l-16 86q-25 -98 -143 -98q-139 0 -139 149v325h134v-287q0 -86 63 -86q37 0 60 31t23 94v248h134v-462h-116zM179 -132q0 37 23 57.5t58 20.5q37 0 60.5 -20.5t23.5 -57.5q0 -36 -23.5 -56t-60.5 -20q-35 0 -58 20t-23 56z" />
    <glyph glyph-name="Ygrave" unicode="&#x1ef2;" horiz-adv-x="545" 
d="M164 589l69 -140q16 -35 27 -67t14 -46l3 -15h4q6 51 43 127l68 141h143l-188 -393v-196h-136v196l-201 393h154zM341 647h-122l-110 143h168z" />
    <glyph glyph-name="ygrave" unicode="&#x1ef3;" horiz-adv-x="484" 
d="M148 462l60 -210q12 -40 20 -77.5t10 -54.5l2 -17h4q6 59 33 148l64 211h141l-183 -503q-37 -100 -84.5 -133.5t-126.5 -33.5q-37 0 -83 11l20 118q27 -16 61 -16q32 0 52.5 15.5t34.5 53.5l-171 488h146zM312 526h-121l-117 153h168z" />
    <glyph glyph-name="Ytilde" unicode="&#x1ef8;" horiz-adv-x="545" 
d="M164 589l69 -140q16 -35 27 -67t14 -46l3 -15h4q6 51 43 127l68 141h143l-188 -393v-196h-136v196l-201 393h154zM348 649q-37 0 -74 22q-43 25 -58 25q-16 0 -25.5 -12.5t-5.5 -36.5h-74q-28 58 0 107.5t87 49.5q31 0 68 -21q48 -27 62 -27q32 0 26 46h78q26 -61 1 -107
t-85 -46z" />
    <glyph glyph-name="ytilde" unicode="&#x1ef9;" horiz-adv-x="484" 
d="M148 462l60 -210q12 -40 20 -77.5t10 -54.5l2 -17h4q6 59 33 148l64 211h141l-183 -503q-37 -100 -84.5 -133.5t-126.5 -33.5q-37 0 -83 11l20 118q27 -16 61 -16q32 0 52.5 15.5t34.5 53.5l-171 488h146zM320 521q-36 0 -74 23q-45 25 -58 25q-16 0 -25.5 -12.5
t-5.5 -36.5h-74q-28 57 0 106.5t87 49.5q33 0 68 -20q47 -28 62 -28q33 0 26 46h78q26 -61 1 -107t-85 -46z" />
    <glyph glyph-name="enspace" unicode="&#x2002;" horiz-adv-x="450" 
 />
    <glyph glyph-name="emspace" unicode="&#x2003;" horiz-adv-x="900" 
 />
    <glyph glyph-name="threeperemspace" unicode="&#x2004;" horiz-adv-x="300" 
 />
    <glyph glyph-name="fourperemspace" unicode="&#x2005;" horiz-adv-x="225" 
 />
    <glyph glyph-name="sixperemspace" unicode="&#x2006;" horiz-adv-x="150" 
 />
    <glyph glyph-name="figurespace" unicode="&#x2007;" horiz-adv-x="513" 
 />
    <glyph glyph-name="punctuationspace" unicode="&#x2008;" horiz-adv-x="171" 
 />
    <glyph glyph-name="thinspace" unicode="&#x2009;" horiz-adv-x="90" 
 />
    <glyph glyph-name="hairspace" unicode="&#x200a;" horiz-adv-x="45" 
 />
    <glyph glyph-name="zerowidthspace" unicode="&#x200b;" horiz-adv-x="0" 
 />
    <glyph glyph-name="figuredash" unicode="&#x2012;" horiz-adv-x="583" 
d="M62 210v89h459v-89h-459z" />
    <glyph glyph-name="endash" unicode="&#x2013;" horiz-adv-x="500" 
d="M62 210v89h376v-89h-376z" />
    <glyph glyph-name="emdash" unicode="&#x2014;" horiz-adv-x="1000" 
d="M62 210v89h876v-89h-876z" />
    <glyph glyph-name="uni2015" unicode="&#x2015;" horiz-adv-x="1250" 
d="M62 210v89h1126v-89h-1126z" />
    <glyph glyph-name="doublebar" unicode="&#x2016;" horiz-adv-x="508" 
d="M207 -203h-107v871h107v-871zM408 -203h-107v871h107v-871z" />
    <glyph glyph-name="quoteleft" unicode="&#x2018;" horiz-adv-x="250" 
d="M32 509q0 170 186 172v-55q-95 -8 -95 -75q36 5 63 -15t27 -58t-24 -58t-61 -20q-42 0 -69 30t-27 79z" />
    <glyph glyph-name="quoteright" unicode="&#x2019;" horiz-adv-x="250" 
d="M218 572q0 -170 -186 -172v55q95 8 95 75q-36 -6 -63 14t-27 59q0 37 24 57.5t61 20.5q42 0 69 -30.5t27 -78.5z" />
    <glyph glyph-name="quotesinglbase" unicode="&#x201a;" horiz-adv-x="250" 
d="M218 43q0 -170 -186 -172v55q95 8 95 75q-36 -6 -63 14t-27 59q0 37 24 57.5t61 20.5q42 0 69 -30t27 -79z" />
    <glyph glyph-name="reversequoteleft" unicode="&#x201b;" horiz-adv-x="250" 
d="M32 572q0 48 27 78.5t69 30.5q37 0 61 -20.5t24 -57.5q0 -39 -27 -59t-63 -14q0 -67 95 -75v-55q-186 2 -186 172z" />
    <glyph glyph-name="quotedblleft" unicode="&#x201c;" horiz-adv-x="482" 
d="M32 509q0 170 186 172v-55q-95 -8 -95 -75q36 5 63 -15t27 -58t-24 -58t-61 -20q-42 0 -69 30t-27 79zM264 509q0 170 186 172v-55q-95 -8 -95 -75q36 5 63 -15t27 -58t-24 -58t-61 -20q-42 0 -69 30t-27 79z" />
    <glyph glyph-name="quotedblright" unicode="&#x201d;" horiz-adv-x="482" 
d="M218 572q0 -170 -186 -172v55q95 8 95 75q-36 -5 -63 15t-27 58t24 58t61 20q42 0 69 -30t27 -79zM450 572q0 -170 -186 -172v55q95 8 95 75q-36 -5 -63 15t-27 58t24 58t61 20q42 0 69 -30t27 -79z" />
    <glyph glyph-name="quotedblbase" unicode="&#x201e;" horiz-adv-x="482" 
d="M218 43q0 -170 -186 -172v55q95 8 95 75q-36 -5 -63 15t-27 58t24 58t61 20q42 0 69 -30t27 -79zM450 43q0 -170 -186 -172v55q95 8 95 75q-36 -5 -63 15t-27 58t24 58t61 20q42 0 69 -30t27 -79z" />
    <glyph glyph-name="reversequotedblleft" unicode="&#x201f;" horiz-adv-x="482" 
d="M32 572q0 49 27 79t69 30q37 0 61 -20t24 -58t-27 -58t-63 -15q0 -67 95 -75v-55q-186 2 -186 172zM264 572q0 49 27 79t69 30q37 0 61 -20t24 -58t-27 -58t-63 -15q0 -67 95 -75v-55q-186 2 -186 172z" />
    <glyph glyph-name="dagger" unicode="&#x2020;" horiz-adv-x="554" 
d="M221 254l-179 -11v122l178 -10l-10 234h133l-10 -234l179 10v-122l-178 11l10 -404h-133z" />
    <glyph glyph-name="daggerdbl" unicode="&#x2021;" horiz-adv-x="554" 
d="M333 296v-138l179 10v-121l-179 11l11 -208h-132l11 208l-181 -11v121l179 -10v138l-179 -11v123l179 -11l-10 192h133l-11 -192l179 11v-123z" />
    <glyph glyph-name="bullet" unicode="&#x2022;" horiz-adv-x="359" 
d="M61 257q0 49 35 84t83 35q49 0 84 -35t35 -84t-35 -84t-84 -35q-48 0 -83 35t-35 84z" />
    <glyph glyph-name="ellipsis" unicode="&#x2026;" horiz-adv-x="876" 
d="M60 79q0 37 24.5 62.5t59.5 25.5q38 0 63 -25t25 -63q0 -36 -25 -60t-63 -24q-35 0 -59.5 24.5t-24.5 59.5zM352 79q0 37 24.5 62.5t59.5 25.5q38 0 63 -25t25 -63q0 -36 -25 -60t-63 -24q-35 0 -59.5 24.5t-24.5 59.5zM644 79q0 37 24.5 62.5t59.5 25.5q38 0 63 -25
t25 -63q0 -36 -25 -60t-63 -24q-35 0 -59.5 24.5t-24.5 59.5z" />
    <glyph glyph-name="perthousand" unicode="&#x2030;" horiz-adv-x="1233" 
d="M179 229q-75 0 -113.5 51t-38.5 133q0 81 40.5 132.5t111.5 51.5q72 0 112.5 -51.5t40.5 -132.5q0 -82 -38.5 -133t-114.5 -51zM179 512q-25 0 -40 -27t-15 -74q0 -44 15 -72t40 -28q26 0 41 27.5t15 72.5q0 47 -14.5 74t-41.5 27zM246 0l305 589h81l-307 -589h-79z
M703 -7q-75 0 -113.5 51t-38.5 133q0 81 40.5 132.5t111.5 51.5q72 0 112.5 -51.5t40.5 -132.5q0 -82 -38.5 -133t-114.5 -51zM703 276q-25 0 -40 -27t-15 -74q0 -44 15 -72t40 -28q26 0 41 27.5t15 72.5q0 47 -14.5 74t-41.5 27zM1053 -7q-75 0 -113.5 51t-38.5 133
q0 81 40.5 132.5t111.5 51.5q72 0 112.5 -51.5t40.5 -132.5q0 -82 -38.5 -133t-114.5 -51zM1053 276q-25 0 -40 -27t-15 -74q0 -44 15 -72t40 -28q26 0 41 27.5t15 72.5q0 47 -14.5 74t-41.5 27z" />
    <glyph glyph-name="tripleprime" unicode="&#x2034;" horiz-adv-x="591" 
d="M64 412v256h131l-51 -256h-80zM240 412v256h131l-51 -256h-80zM416 412v256h131l-51 -256h-80z" />
    <glyph glyph-name="guilsinglleft" unicode="&#x2039;" horiz-adv-x="326" 
d="M151 237v-4q21 -7 52 -40l92 -104l-66 -65l-199 212l199 212l66 -67l-93 -103q-14 -15 -26.5 -25t-18.5 -13z" />
    <glyph glyph-name="guilsinglright" unicode="&#x203a;" horiz-adv-x="326" 
d="M175 233v4q-21 8 -51 41l-93 103l66 67l199 -212l-199 -212l-67 65l93 104q13 15 26 25t19 12z" />
    <glyph glyph-name="fraction" unicode="&#x2044;" horiz-adv-x="170" 
d="M-108 0l305 589h81l-307 -589h-79z" />
    <glyph glyph-name="uni2070" unicode="&#x2070;" horiz-adv-x="359" 
d="M179 229q-75 0 -113.5 51t-38.5 133q0 81 40.5 132.5t111.5 51.5q72 0 112.5 -51.5t40.5 -132.5q0 -82 -38.5 -133t-114.5 -51zM179 512q-25 0 -40 -27t-15 -74q0 -44 15 -72t40 -28q26 0 41 27.5t15 72.5q0 47 -14.5 74t-41.5 27z" />
    <glyph glyph-name="uni2074" unicode="&#x2074;" horiz-adv-x="354" 
d="M185 236v70h-174v67l177 216h96v-212h50v-71h-50v-70h-99zM187 375v65l5 71h-4q-9 -25 -29 -51l-32 -40q-10 -12 -21.5 -24t-18.5 -18l-7 -5v-4q21 6 56 6h51z" />
    <glyph glyph-name="uni2075" unicode="&#x2075;" horiz-adv-x="328" 
d="M42 383l9 206h231v-81h-155l-4 -67q21 24 71 24q48 0 78 -30t30 -82q0 -61 -41.5 -92.5t-108.5 -31.5q-123 0 -140 84l85 39q3 -22 18 -36t39 -14t39 12.5t15 37.5q0 22 -12 35t-32 13q-26 0 -40 -17h-82z" />
    <glyph glyph-name="uni2076" unicode="&#x2076;" horiz-adv-x="342" 
d="M310 539l-67 -55q-15 34 -54 34q-70 0 -70 -114h4q17 55 87 55q48 0 77.5 -30.5t29.5 -79.5q0 -55 -37.5 -87.5t-103.5 -32.5q-72 0 -110.5 45t-38.5 131q0 93 47 142.5t118 49.5q79 0 118 -58zM135 348q0 -21 13.5 -33.5t34.5 -12.5t34.5 12.5t13.5 33.5t-13.5 34.5
t-33.5 13.5q-21 0 -35 -13.5t-14 -34.5z" />
    <glyph glyph-name="uni2077" unicode="&#x2077;" horiz-adv-x="321" 
d="M201 508h-103v-55h-82v136h291v-71l-133 -282h-106z" />
    <glyph glyph-name="uni2078" unicode="&#x2078;" horiz-adv-x="344" 
d="M172 381q-46 0 -46 -41q0 -18 12.5 -29t33.5 -11t33.5 11t12.5 29q0 21 -13.5 31t-32.5 10zM172 229q-66 0 -105 25.5t-39 74.5q0 33 21 55.5t61 28.5v4q-35 4 -53.5 26t-18.5 51q0 48 35.5 75.5t98.5 27.5t98.5 -27.5t35.5 -75.5q0 -29 -18.5 -51t-53.5 -26v-4
q40 -6 61 -28.5t21 -55.5q0 -49 -39 -74.5t-105 -25.5zM172 528q-20 0 -31.5 -10.5t-11.5 -27.5t12.5 -26.5t30.5 -9.5t30.5 9.5t12.5 26.5t-11.5 27.5t-31.5 10.5z" />
    <glyph glyph-name="uni2079" unicode="&#x2079;" horiz-adv-x="342" 
d="M32 287l67 55q15 -34 54 -34q70 0 70 114h-4q-17 -55 -87 -55q-48 0 -77.5 30.5t-29.5 79.5q0 55 37.5 87.5t103.5 32.5q72 0 110.5 -45t38.5 -131q0 -93 -46.5 -142.5t-117.5 -49.5q-80 0 -119 58zM207 477q0 21 -13.5 33.5t-34.5 12.5t-34 -12.5t-13 -33.5
q0 -22 13 -35t34 -13t34.5 13t13.5 35z" />
    <glyph glyph-name="uni207A" unicode="&#x207a;" horiz-adv-x="443" 
d="M45 451h142v138h66v-138h145v-65h-145v-150h-66v150h-142v65z" />
    <glyph glyph-name="uni207B" unicode="&#x207b;" horiz-adv-x="444" 
d="M399 385h-354v66h354v-66z" />
    <glyph glyph-name="uni207C" unicode="&#x207c;" horiz-adv-x="444" 
d="M399 325h-354v65h354v-65zM399 457h-354v65h354v-65z" />
    <glyph glyph-name="uni207D" unicode="&#x207d;" horiz-adv-x="232" 
d="M117 408q0 -47 13 -90.5t27 -68t42 -67.5h-76q-23 31 -37 56.5t-27 71.5t-13 98q0 75 21 127t56 101h76q-27 -42 -41.5 -68t-27.5 -70t-13 -90z" />
    <glyph glyph-name="uni207E" unicode="&#x207e;" horiz-adv-x="232" 
d="M128 408q0 46 -13 90t-27.5 70t-41.5 68h77q22 -32 36 -57.5t27 -72t13 -98.5t-13 -98t-27 -71t-36 -57h-77q28 43 42 67.5t27 68t13 90.5z" />
    <glyph glyph-name="n.superior" unicode="&#x207f;" horiz-adv-x="414" 
d="M147 593l13 -59q23 67 101 67q44 0 73 -25.5t29 -79.5v-209h-105v179q0 56 -41 56q-56 0 -56 -72v-163h-105v306h91z" />
    <glyph glyph-name="uni2080" unicode="&#x2080;" horiz-adv-x="359" 
d="M179 -7q-75 0 -113.5 51t-38.5 133q0 81 40.5 132.5t111.5 51.5q72 0 112.5 -51.5t40.5 -132.5q0 -82 -38.5 -133t-114.5 -51zM179 276q-25 0 -40 -27t-15 -74q0 -44 15 -72t40 -28q26 0 41 27.5t15 72.5q0 47 -14.5 74t-41.5 27z" />
    <glyph glyph-name="uni2081" unicode="&#x2081;" horiz-adv-x="315" 
d="M297 0h-260v73h85v190l-94 -8v77l192 21v-280h77v-73z" />
    <glyph glyph-name="uni2082" unicode="&#x2082;" horiz-adv-x="333" 
d="M307 77v-77h-278v64q95 68 129.5 102t34.5 68q0 41 -40 41q-21 0 -35 -15.5t-14 -45.5l-83 32q2 48 38.5 81.5t103.5 33.5q59 0 96 -29.5t37 -84.5q0 -100 -140 -166v-4h151z" />
    <glyph glyph-name="uni2083" unicode="&#x2083;" horiz-adv-x="325" 
d="M198 180v-2q99 -7 99 -89q0 -46 -38.5 -71t-108.5 -25q-56 0 -94 21.5t-46 59.5l81 33q11 -43 60 -43q42 0 42 33q0 46 -89 48v56q83 4 83 48q0 34 -34 34q-43 0 -47 -39l-80 30q7 41 44 64t91 23q56 0 89.5 -23.5t33.5 -69.5q0 -73 -86 -88z" />
    <glyph glyph-name="uni2084" unicode="&#x2084;" horiz-adv-x="354" 
d="M185 0v70h-174v67l177 216h96v-212h50v-71h-50v-70h-99zM187 139v65l5 71h-4q-9 -25 -29 -51l-32 -40q-10 -12 -21.5 -23.5t-18.5 -17.5l-7 -6v-4q21 6 56 6h51z" />
    <glyph glyph-name="uni2085" unicode="&#x2085;" horiz-adv-x="328" 
d="M42 147l9 206h231v-81h-155l-4 -67q21 24 71 24q48 0 78 -30t30 -82q0 -61 -41.5 -92.5t-108.5 -31.5q-123 0 -140 84l85 39q3 -22 18 -36t39 -14t39 12.5t15 37.5q0 22 -12 35t-32 13q-26 0 -40 -17h-82z" />
    <glyph glyph-name="uni2086" unicode="&#x2086;" horiz-adv-x="342" 
d="M310 303l-67 -55q-15 34 -54 34q-70 0 -70 -114h4q17 55 87 55q48 0 77.5 -30.5t29.5 -79.5q0 -55 -37.5 -87.5t-103.5 -32.5q-72 0 -110.5 45t-38.5 131q0 93 47 142.5t118 49.5q79 0 118 -58zM135 112q0 -21 13.5 -33.5t34.5 -12.5t34.5 12.5t13.5 33.5t-13.5 34.5
t-33.5 13.5q-21 0 -35 -13.5t-14 -34.5z" />
    <glyph glyph-name="uni2087" unicode="&#x2087;" horiz-adv-x="321" 
d="M201 272h-103v-55h-82v136h291v-71l-133 -282h-106z" />
    <glyph glyph-name="uni2088" unicode="&#x2088;" horiz-adv-x="344" 
d="M172 145q-46 0 -46 -41q0 -18 12.5 -29t33.5 -11t33.5 11t12.5 29q0 21 -13.5 31t-32.5 10zM172 -7q-66 0 -105 25.5t-39 74.5q0 33 21 55.5t61 28.5v4q-35 4 -53.5 26t-18.5 51q0 48 35.5 75.5t98.5 27.5t98.5 -27.5t35.5 -75.5q0 -29 -18.5 -51t-53.5 -26v-4
q40 -6 61 -28.5t21 -55.5q0 -49 -39 -74.5t-105 -25.5zM172 292q-20 0 -31.5 -10.5t-11.5 -27.5t12.5 -26.5t30.5 -9.5t30.5 9.5t12.5 26.5t-11.5 27.5t-31.5 10.5z" />
    <glyph glyph-name="uni2089" unicode="&#x2089;" horiz-adv-x="342" 
d="M32 51l67 55q15 -34 54 -34q70 0 70 114h-4q-17 -55 -87 -55q-48 0 -77.5 30.5t-29.5 79.5q0 55 37.5 87.5t103.5 32.5q72 0 110.5 -45t38.5 -131q0 -93 -46.5 -142.5t-117.5 -49.5q-80 0 -119 58zM207 241q0 21 -13.5 33.5t-34.5 12.5t-34 -12.5t-13 -33.5q0 -22 13 -35
t34 -13t34.5 13t13.5 35z" />
    <glyph glyph-name="uni208A" unicode="&#x208a;" horiz-adv-x="443" 
d="M45 215h142v138h66v-138h145v-65h-145v-150h-66v150h-142v65z" />
    <glyph glyph-name="uni208B" unicode="&#x208b;" horiz-adv-x="444" 
d="M399 150h-354v65h354v-65z" />
    <glyph glyph-name="uni208C" unicode="&#x208c;" horiz-adv-x="444" 
d="M399 90h-354v65h354v-65zM399 221h-354v66h354v-66z" />
    <glyph glyph-name="uni208D" unicode="&#x208d;" horiz-adv-x="232" 
d="M117 172q0 -47 13 -90.5t27 -68t42 -67.5h-76q-23 33 -37 58t-27 70.5t-13 97.5q0 75 21 127t56 101h76q-27 -41 -41.5 -67.5t-27.5 -70t-13 -90.5z" />
    <glyph glyph-name="uni208E" unicode="&#x208e;" horiz-adv-x="232" 
d="M128 172q0 47 -13 90.5t-27.5 70t-41.5 67.5h77q22 -32 36 -57.5t27 -72t13 -98.5t-13 -98t-26.5 -70.5t-36.5 -57.5h-77q28 43 42 67.5t27 68t13 90.5z" />
    <glyph glyph-name="uni20A1" unicode="&#x20a1;" horiz-adv-x="517" 
d="M111 -67l32 89q-101 63 -101 217q0 122 65 188t182 66q17 0 25 -1l29 81l47 -18l-26 -71q24 -8 35 -13l28 75l47 -17l-32 -88q31 -31 50 -76l-95 -48l-82 -224q47 11 72 71l105 -65q-32 -59 -82.5 -85t-131.5 -26h-1l-35 -98l-48 16l31 87q-24 4 -36 8l-31 -85zM174 241
q0 -56 16 -91l88 243q-104 -2 -104 -152zM226 104q13 -9 35 -14l97 266q-12 17 -31 27z" />
    <glyph glyph-name="uni20A2" unicode="&#x20a2;" horiz-adv-x="520" 
d="M399 157l94 -58q-32 -59 -82.5 -85t-131.5 -26q-108 0 -172 64t-64 187q0 122 65 188t182 66q150 0 203 -128l-113 -57q-12 41 -34.5 63t-65.5 22q-49 0 -77 -38t-28 -114q0 -120 68 -151v187h77l9 -67q9 36 32 55t70 19l-11 -97q-11 4 -27 4q-63 0 -63 -57v-45
q48 15 69 68z" />
    <glyph glyph-name="franc" unicode="&#x20a3;" horiz-adv-x="468" 
d="M376 142h-142v-142h-134v142h-62v53h62v47h-62v53h62v186h352v-109h-218v-77h142v-53h-142v-47h142v-53z" />
    <glyph glyph-name="lira" unicode="&#x20a4;" horiz-adv-x="516" 
d="M341 158h-101q-9 -35 -35 -49h125q57 0 74 47l93 -54q-8 -49 -47 -75.5t-96 -26.5h-306v110h32q43 0 49 48h-90v53h82q-2 6 -7.5 16.5t-7.5 14.5h-67v53h47q-5 22 -5 47q0 68 53.5 109.5t127.5 41.5q167 0 186 -137l-118 -30q-13 62 -66 62q-63 0 -63 -60q0 -16 7 -33
h133v-53h-104q6 -17 7 -31h97v-53z" />
    <glyph glyph-name="uni20A6" unicode="&#x20a6;" horiz-adv-x="694" 
d="M666 152h-75v-152h-123l-171 213q-18 23 -32.5 44.5t-20.5 32.5l-5 10h-4q6 -51 6 -135v-165h-134v152h-79v53h79v53h-78v53h78v170h144l156 -201q16 -20 28.5 -39.5t16.5 -28.5l5 -10h4q-4 53 -4 128v151h134v-170h74v-53h-74v-53h75v-53z" />
    <glyph glyph-name="peseta" unicode="&#x20a7;" horiz-adv-x="1255" 
d="M209 0h-135v481h197q152 0 194 -90h348q33 102 190 102q88 0 138 -34.5t53 -100.5l-130 -15q-4 54 -67 54q-28 0 -43.5 -12t-15.5 -33q0 -39 51 -49l69 -14q71 -14 107 -54.5t36 -98.5q0 -76 -55.5 -112t-148.5 -36q-184 0 -207 122l105 44q18 -70 108 -70q67 0 67 41
q0 21 -12.5 29.5t-49.5 18.5l-73 17q-95 20 -121 92h-107v-282h-135v282h-91q-4 -80 -55.5 -121.5t-143.5 -41.5h-73v-119zM209 374v-148h56q43 0 63 17t20 57t-20 57t-62 17h-57z" />
    <glyph glyph-name="uni20A8" unicode="&#x20a8;" horiz-adv-x="878" 
d="M209 374v-123h70q36 0 53 14.5t17 46.5q0 62 -70 62h-70zM291 481q196 0 196 -156q0 -59 -34.5 -90t-91.5 -36v-3q18 -1 34 -6t21.5 -7.5t24 -14t21.5 -13.5l83 -48q54 -34 119 -34q46 0 46 23q0 22 -40 31l-60 14q-91 20 -91 107q0 62 43.5 89t109.5 27q145 0 149 -101
l-104 -11q-4 37 -49 37q-36 0 -36 -27q0 -13 8 -20t31 -11l42 -9q113 -21 113 -124q0 -110 -171 -110q-157 0 -253 69l-64 45q-63 47 -102 47h-27v-149h-135v481h217z" />
    <glyph glyph-name="uni20A9" unicode="&#x20a9;" horiz-adv-x="894" 
d="M854 163h-123l-39 -163h-167l-56 211q-8 29 -13.5 65t-6.5 57l-1 21h-4q-4 -75 -22 -144l-54 -210h-166l-40 163h-122v52h110l-13 54h-96v52h83l-38 160h140l55 -244q7 -31 11.5 -66t5.5 -55l1 -19h3q6 72 21 139l57 245h138l60 -243q8 -31 13 -65.5t6 -54.5l1 -19h3
q1 71 17 138l56 244h134l-39 -160h84v-52h-96l-13 -54h110v-52z" />
    <glyph glyph-name="uni20AA" unicode="&#x20aa;" horiz-adv-x="826" 
d="M561 151h-114v173q0 58 -62 58h-168v-382h-135v481h321q158 0 158 -152v-178zM619 481h135v-329q0 -73 -36.5 -112.5t-121.5 -39.5h-319v329h113v-230h170q28 0 43.5 15.5t15.5 40.5v326z" />
    <glyph glyph-name="Euro" unicode="&#x20ac;" horiz-adv-x="559" 
d="M341 164h-107q23 -68 91 -68q37 0 60 17t38 53l106 -67q-32 -59 -81 -85t-128 -26q-88 0 -146.5 44.5t-76.5 131.5h-75v52h68v47h-68v53h75q19 86 79 131.5t155 45.5q147 0 197 -128l-113 -60q-12 39 -32.5 60t-60.5 21q-67 0 -89 -70h135l-10 -53h-135v-22q0 -17 1 -25
h127z" />
    <glyph glyph-name="uni20AE" unicode="&#x20ae;" horiz-adv-x="480" 
d="M306 0h-135v115l-101 -17v52l101 17v48l-101 -17v52l101 17v105h-151v109h440v-109h-154v-82l102 18v-52l-102 -18v-48l102 18v-52l-102 -18v-138z" />
    <glyph glyph-name="uni20B1" unicode="&#x20b1;" horiz-adv-x="597" 
d="M577 271h-71q-17 -152 -198 -152h-74v-119h-134v271h-70v52h70v158h197q100 0 151.5 -38t58.5 -120h70v-52zM234 380v-57h138q-5 31 -24.5 44t-55.5 13h-58zM291 218q71 0 80 53h-137v-53h57z" />
    <glyph glyph-name="afii61289" unicode="&#x2113;" horiz-adv-x="394" 
d="M39 121l-30 55l80 55v233q0 110 39 157.5t116 47.5q132 0 132 -128q0 -193 -162 -327v-35q0 -44 14.5 -60.5t46.5 -16.5t64 15l-8 -113q-50 -16 -100 -16q-63 0 -102.5 30t-39.5 97v39zM214 490v-195q44 44 67.5 100t23.5 145q0 55 -44 55q-47 0 -47 -105z" />
    <glyph glyph-name="afii61352" unicode="&#x2116;" horiz-adv-x="1043" 
d="M683 0v96h309v-96h-309zM214 216v-61q0 -93 -42 -132t-127 -45l-23 126q30 2 43.5 17.5t13.5 53.5v414h128l192 -269q14 -20 26.5 -39.5t17.5 -29.5l5 -10h4q-3 50 -3 125v58q0 93 42 132t127 45l23 -126q-29 -2 -43 -17.5t-14 -53.5v-404h-123l-193 264q-16 22 -30 44
t-20 32l-6 11h-4q6 -51 6 -135zM835 152q-72 0 -115 42.5t-43 119.5q0 76 43 118t115 42q73 0 116 -41.5t43 -118.5t-43 -119.5t-116 -42.5zM835 396q-47 0 -47 -84q0 -83 47 -83t47 83q0 84 -47 84z" />
    <glyph glyph-name="published" unicode="&#x2117;" horiz-adv-x="703" 
d="M379 220h-47v-108h-110v373h160q149 0 149 -129q0 -136 -152 -136zM332 396v-93h37q53 0 53 47q0 46 -54 46h-36zM45 294q0 132 89 219.5t217 87.5t217.5 -87.5t89.5 -219.5t-89.5 -219t-217.5 -87t-217 87t-89 219zM76 294q0 -120 80.5 -198.5t196.5 -78.5
q115 0 195 78.5t80 198.5t-80 199t-195 79q-116 0 -196.5 -79t-80.5 -199z" />
    <glyph glyph-name="servicemark" unicode="&#x2120;" horiz-adv-x="622" 
d="M20 402l62 23q12 -36 50 -36q31 0 31 20q0 17 -31 24l-39 9q-64 15 -64 73q0 80 107 80q101 0 104 -69l-73 -10q-1 25 -33 25q-26 0 -26 -19q0 -18 26 -23l32 -6q38 -7 58 -28.5t20 -51.5q0 -76 -111 -76q-101 0 -113 65zM580 341h-75v138h-4l-41 -79h-45l-40 79h-5v-138
h-75v248h82l60 -106h1l59 106h83v-248z" />
    <glyph glyph-name="trademark" unicode="&#x2122;" horiz-adv-x="612" 
d="M163 341h-75v187h-68v61h212v-61h-69v-187zM570 341h-75v138h-4l-41 -79h-45l-40 79h-5v-138h-75v248h82l60 -106h1l59 106h83v-248z" />
    <glyph glyph-name="ohm" unicode="&#x2126;" horiz-adv-x="680" 
d="M339 481q-67 0 -102 -47.5t-35 -126.5q0 -70 25.5 -117.5t62.5 -67.5v-122h-237v122h119q-46 21 -79 74.5t-33 126.5q0 128 74.5 203t204.5 75t205.5 -75.5t75.5 -202.5q0 -73 -33.5 -126.5t-79.5 -74.5h120v-122h-239v122q38 20 64 67.5t26 117.5q0 79 -35.5 126.5
t-103.5 47.5z" />
    <glyph glyph-name="estimated" unicode="&#x212e;" horiz-adv-x="647" 
d="M323 601q71 0 126 -25.5t87.5 -69.5t49 -98t16.5 -114v-26h-431v-169q58 -58 152 -58q130 0 184 104h66q-30 -73 -93 -115t-157 -42q-93 0 -157.5 45t-92.5 112.5t-28 148.5q0 82 28 149.5t92.5 112.5t157.5 45zM323 548q-96 0 -152 -58v-170h305v170q-56 58 -153 58z
" />
    <glyph glyph-name="uni2153" unicode="&#x2153;" horiz-adv-x="870" 
d="M308 236h-260v73h85v190l-94 -8v77l192 21v-280h77v-73zM242 0l305 589h81l-307 -589h-79zM718 180v-2q99 -7 99 -89q0 -46 -38.5 -71t-108.5 -25q-56 0 -94 21.5t-46 59.5l81 33q11 -43 60 -43q42 0 42 33q0 46 -89 48v56q83 4 83 48q0 34 -34 34q-43 0 -47 -39l-80 30
q7 41 44 64t91 23q56 0 89.5 -23.5t33.5 -69.5q0 -73 -86 -88z" />
    <glyph glyph-name="uni2154" unicode="&#x2154;" horiz-adv-x="870" 
d="M321 313v-77h-278v64q95 68 129.5 102t34.5 68q0 41 -40 41q-21 0 -35 -15.5t-14 -45.5l-83 32q2 48 38.5 81.5t103.5 33.5q59 0 96 -29.5t37 -84.5q0 -100 -140 -166v-4h151zM242 0l305 589h81l-307 -589h-79zM718 180v-2q99 -7 99 -89q0 -46 -38.5 -71t-108.5 -25
q-56 0 -94 21.5t-46 59.5l81 33q11 -43 60 -43q42 0 42 33q0 46 -89 48v56q83 4 83 48q0 34 -34 34q-43 0 -47 -39l-80 30q7 41 44 64t91 23q56 0 89.5 -23.5t33.5 -69.5q0 -73 -86 -88z" />
    <glyph glyph-name="uni215B" unicode="&#x215b;" horiz-adv-x="870" 
d="M308 236h-260v73h85v190l-94 -8v77l192 21v-280h77v-73zM242 0l305 589h81l-307 -589h-79zM692 145q-46 0 -46 -41q0 -18 12.5 -29t33.5 -11t33.5 11t12.5 29q0 21 -13.5 31t-32.5 10zM692 -7q-66 0 -105 25.5t-39 74.5q0 33 21 55.5t61 28.5v4q-35 4 -53.5 26t-18.5 51
q0 48 35.5 75.5t98.5 27.5t98.5 -27.5t35.5 -75.5q0 -29 -18.5 -51t-53.5 -26v-4q40 -6 61 -28.5t21 -55.5q0 -49 -39 -74.5t-105 -25.5zM692 292q-20 0 -31.5 -10.5t-11.5 -27.5t12.5 -26.5t30.5 -9.5t30.5 9.5t12.5 26.5t-11.5 27.5t-31.5 10.5z" />
    <glyph glyph-name="uni215C" unicode="&#x215c;" horiz-adv-x="870" 
d="M220 416v-2q99 -7 99 -89q0 -46 -38.5 -71t-108.5 -25q-56 0 -94 21.5t-46 59.5l81 33q11 -43 60 -43q42 0 42 33q0 46 -89 48v56q83 4 83 48q0 34 -34 34q-43 0 -47 -39l-80 30q7 41 44 64t91 23q56 0 89.5 -23.5t33.5 -69.5q0 -73 -86 -88zM242 0l305 589h81l-307 -589
h-79zM692 145q-46 0 -46 -41q0 -18 12.5 -29t33.5 -11t33.5 11t12.5 29q0 21 -13.5 31t-32.5 10zM692 -7q-66 0 -105 25.5t-39 74.5q0 33 21 55.5t61 28.5v4q-35 4 -53.5 26t-18.5 51q0 48 35.5 75.5t98.5 27.5t98.5 -27.5t35.5 -75.5q0 -29 -18.5 -51t-53.5 -26v-4
q40 -6 61 -28.5t21 -55.5q0 -49 -39 -74.5t-105 -25.5zM692 292q-20 0 -31.5 -10.5t-11.5 -27.5t12.5 -26.5t30.5 -9.5t30.5 9.5t12.5 26.5t-11.5 27.5t-31.5 10.5z" />
    <glyph glyph-name="uni215D" unicode="&#x215d;" horiz-adv-x="870" 
d="M60 383l9 206h231v-81h-155l-4 -67q21 24 71 24q48 0 78 -30t30 -82q0 -61 -41.5 -92.5t-108.5 -31.5q-123 0 -140 84l85 39q3 -22 18 -36t39 -14t39 12.5t15 37.5q0 22 -12 35t-32 13q-26 0 -40 -17h-82zM242 0l305 589h81l-307 -589h-79zM692 145q-46 0 -46 -41
q0 -18 12.5 -29t33.5 -11t33.5 11t12.5 29q0 21 -13.5 31t-32.5 10zM692 -7q-66 0 -105 25.5t-39 74.5q0 33 21 55.5t61 28.5v4q-35 4 -53.5 26t-18.5 51q0 48 35.5 75.5t98.5 27.5t98.5 -27.5t35.5 -75.5q0 -29 -18.5 -51t-53.5 -26v-4q40 -6 61 -28.5t21 -55.5
q0 -49 -39 -74.5t-105 -25.5zM692 292q-20 0 -31.5 -10.5t-11.5 -27.5t12.5 -26.5t30.5 -9.5t30.5 9.5t12.5 26.5t-11.5 27.5t-31.5 10.5z" />
    <glyph glyph-name="uni215E" unicode="&#x215e;" horiz-adv-x="825" 
d="M215 508h-103v-55h-82v136h291v-71l-133 -282h-106zM203 0l305 589h81l-307 -589h-79zM653 145q-46 0 -46 -41q0 -18 12.5 -29t33.5 -11t33.5 11t12.5 29q0 21 -13.5 31t-32.5 10zM653 -7q-66 0 -105 25.5t-39 74.5q0 33 21 55.5t61 28.5v4q-35 4 -53.5 26t-18.5 51
q0 48 35.5 75.5t98.5 27.5t98.5 -27.5t35.5 -75.5q0 -29 -18.5 -51t-53.5 -26v-4q40 -6 61 -28.5t21 -55.5q0 -49 -39 -74.5t-105 -25.5zM653 292q-20 0 -31.5 -10.5t-11.5 -27.5t12.5 -26.5t30.5 -9.5t30.5 9.5t12.5 26.5t-11.5 27.5t-31.5 10.5z" />
    <glyph glyph-name="arrowleft" unicode="&#x2190;" horiz-adv-x="706" 
d="M231 353h430v-116h-430l168 -168l-82 -81l-292 307l291 306l82 -82z" />
    <glyph glyph-name="arrowup" unicode="&#x2191;" horiz-adv-x="685" 
d="M401 395v-395h-116v395l-168 -167l-81 82l307 291l306 -291l-82 -82z" />
    <glyph glyph-name="arrowright" unicode="&#x2192;" horiz-adv-x="706" 
d="M25 353h430l-166 166l82 82l290 -306l-291 -307l-82 81l167 168h-430v116z" />
    <glyph glyph-name="arrowdown" unicode="&#x2193;" horiz-adv-x="685" 
d="M284 194v395h116v-395l168 168l81 -82l-307 -292l-306 291l82 82z" />
    <glyph glyph-name="uni2196" unicode="&#x2196;" horiz-adv-x="684" 
d="M585 0l-399 399v-302h-112v492h476v-108h-283l399 -400z" />
    <glyph glyph-name="uni2197" unicode="&#x2197;" horiz-adv-x="684" 
d="M498 399l-399 -399l-81 81l399 400h-284v108h477v-492h-112v302z" />
    <glyph glyph-name="uni2198" unicode="&#x2198;" horiz-adv-x="684" 
d="M99 589l399 -398v301h112v-492h-477v109h284l-399 399z" />
    <glyph glyph-name="uni2199" unicode="&#x2199;" horiz-adv-x="684" 
d="M186 191l399 398l81 -81l-399 -399h283v-109h-476v492h112v-301z" />
    <glyph glyph-name="partialdiff" unicode="&#x2202;" horiz-adv-x="533" 
d="M136 617l111 66q244 -135 244 -415q0 -140 -59 -207.5t-166 -67.5q-103 0 -163.5 62.5t-60.5 175.5q0 108 57.5 167t133.5 59t124 -64q-63 138 -221 224zM360 223q0 61 -24.5 93t-69.5 32q-91 0 -91 -125q0 -60 23.5 -93.5t69.5 -33.5q92 0 92 127z" />
    <glyph glyph-name="increment" unicode="&#x2206;" horiz-adv-x="616" 
d="M606 0h-596l213 589h168zM420 113l-67 189q-15 43 -26.5 85t-15.5 62l-4 20h-4q-16 -71 -48 -166l-64 -190h229z" />
    <glyph glyph-name="product" unicode="&#x220f;" horiz-adv-x="649" 
d="M211 -203h-135v792h497v-792h-134v670h-228v-670z" />
    <glyph glyph-name="summation" unicode="&#x2211;" horiz-adv-x="475" 
d="M419 471h-148l-71 4v-4q17 -10 50 -62l74 -114l-75 -115q-15 -23 -27 -38.5t-17 -19.5l-5 -4v-4q19 4 71 4h148v-118h-419l179 296l-179 293h419v-118z" />
    <glyph glyph-name="minus" unicode="&#x2212;" horiz-adv-x="498" 
d="M453 211h-408v74h408v-74z" />
    <glyph glyph-name="radical" unicode="&#x221a;" horiz-adv-x="632" 
d="M221 468l128 -333h4l146 541l123 -16l-206 -660h-125l-140 317l-92 -44l-47 97z" />
    <glyph glyph-name="infinity" unicode="&#x221e;" horiz-adv-x="863" 
d="M146 242q0 -47 23.5 -71t59.5 -24q50 0 93 43l51 52l-51 52q-42 43 -93 43q-36 0 -59.5 -24t-23.5 -71zM432 176l-46 -45q-46 -46 -80 -65t-86 -19q-74 0 -124 50.5t-50 144.5t50 144.5t124 50.5q52 0 86.5 -19.5t79.5 -64.5l45 -45l46 45q47 46 80.5 65t85.5 19
q73 0 123.5 -50.5t50.5 -144.5t-50.5 -144.5t-123.5 -50.5q-52 0 -86.5 19.5t-79.5 64.5zM717 242q0 47 -23.5 71t-59.5 24q-51 0 -93 -43l-51 -52l51 -52q42 -43 93 -43q36 0 59.5 24t23.5 71z" />
    <glyph glyph-name="integral" unicode="&#x222b;" horiz-adv-x="308" 
d="M78 -12v527q0 82 53 120.5t133 39.5q60 0 112 -18l-21 -124q-34 24 -75 24q-69 0 -69 -74v-526q0 -82 -53 -121t-133 -39q-57 0 -111 17l20 124q36 -24 76 -24q68 0 68 74z" />
    <glyph glyph-name="approxequal" unicode="&#x2248;" horiz-adv-x="498" 
d="M359 245q-31 0 -108 21t-102 21q-57 0 -104 -42v74q47 43 108 43q32 0 102.5 -20t99.5 -20q54 0 98 37v-78q-33 -36 -94 -36zM359 114q-31 0 -108 21t-102 21q-58 0 -104 -41v73q46 43 108 43q32 0 102.5 -19.5t99.5 -19.5q56 0 98 37v-79q-35 -36 -94 -36z" />
    <glyph glyph-name="notequal" unicode="&#x2260;" horiz-adv-x="498" 
d="M453 283h-125l-54 -74h179v-75h-233l-87 -119l-60 44l56 75h-84v75h137l54 74h-191v75h245l80 110l61 -43l-49 -67h71v-75z" />
    <glyph glyph-name="lessequal" unicode="&#x2264;" horiz-adv-x="433" 
d="M363 411l-175 -112l174 -115l-52 -67l-259 181l263 177zM388 19h-343v75h343v-75z" />
    <glyph glyph-name="greaterequal" unicode="&#x2265;" horiz-adv-x="433" 
d="M244 299l-174 112l48 64l264 -177l-260 -181l-51 67zM388 19h-343v75h343v-75z" />
    <glyph glyph-name="blacksquare" unicode="&#x25a0;" horiz-adv-x="743" 
d="M77 0v589h589v-589h-589z" />
    <glyph glyph-name="whitesquare" unicode="&#x25a1;" horiz-adv-x="743" 
d="M77 0v589h589v-589h-589zM120 546v-503h504v503h-504z" />
    <glyph glyph-name="blacksmallsquare" unicode="&#x25aa;" horiz-adv-x="478" 
d="M77 139v325h324v-325h-324z" />
    <glyph glyph-name="whitesmallsquare" unicode="&#x25ab;" horiz-adv-x="480" 
d="M77 139v325h326v-325h-326zM120 421v-239h240v239h-240z" />
    <glyph glyph-name="triagup" unicode="&#x25b2;" horiz-adv-x="570" 
d="M40 0l245 601l245 -601h-490z" />
    <glyph glyph-name="triagrt" unicode="&#x25ba;" horiz-adv-x="678" 
d="M77 536l601 -245l-601 -245v490z" />
    <glyph glyph-name="triagdn" unicode="&#x25bc;" horiz-adv-x="570" 
d="M285 -12l-245 601h490z" />
    <glyph glyph-name="triaglf" unicode="&#x25c4;" horiz-adv-x="678" 
d="M0 291l601 245v-490z" />
    <glyph glyph-name="lozenge" unicode="&#x25ca;" horiz-adv-x="519" 
d="M477 302l-169 -336h-98l-168 336l168 328h98zM372 301l-111 226l-110 -226l110 -232z" />
    <glyph glyph-name="circle" unicode="&#x25cb;" horiz-adv-x="517" 
d="M41 295q0 90 63.5 154t154.5 64q89 0 153 -64t64 -154t-64 -154t-153 -64q-91 0 -154.5 64t-63.5 154zM88 294q0 -72 49.5 -123t121.5 -51q70 0 120.5 51t50.5 123t-50.5 123.5t-120.5 51.5q-72 0 -121.5 -51t-49.5 -124z" />
    <glyph glyph-name="blackcircle" unicode="&#x25cf;" horiz-adv-x="695" 
d="M41 294q0 127 89.5 217t216.5 90t217 -90t90 -217t-90 -216.5t-217 -89.5t-216.5 89.5t-89.5 216.5z" />
    <glyph glyph-name="whitecircle" unicode="&#x25ef;" horiz-adv-x="695" 
d="M41 294q0 127 89.5 217t216.5 90t217 -90t90 -217t-90 -216.5t-217 -89.5t-216.5 89.5t-89.5 216.5zM85 294q0 -110 76.5 -188t185.5 -78q108 0 185 78t77 188t-77 188t-185 78q-109 0 -185.5 -78t-76.5 -188z" />
    <glyph glyph-name="anglebracketleft" unicode="&#x3008;" horiz-adv-x="344" 
d="M319 -203h-135l-153 439l153 432h135l-151 -434z" />
    <glyph glyph-name="anglebracketright" unicode="&#x3009;" horiz-adv-x="344" 
d="M160 -203h-135l151 437l-151 434h135l153 -432z" />
    <glyph glyph-name="lcedilla" unicode="&#xe100;" horiz-adv-x="289" 
d="M268 -118q0 -45 -32 -69t-83 -24q-72 0 -105 36l25 64q31 -35 65 -35q30 0 30 26q0 34 -51 40l9 80q-72 24 -72 109v559h134v-520q0 -40 42 -40q19 0 36 7l-7 -112q-45 -12 -77 -12l-2 -27q88 -6 88 -82z" />
    <glyph glyph-name="uni004500600323" unicode="&#xe101;" horiz-adv-x="522" 
d="M472 118v-118h-395v589h395v-118h-259v-117h228v-113h-228v-123h259zM193 -132q0 37 23 57.5t58 20.5q37 0 60.5 -20.5t23.5 -57.5q0 -36 -23.5 -56t-60.5 -20q-35 0 -58 20t-23 56zM328 647h-123l64 143h168z" />
    <glyph glyph-name="uni006500600323" unicode="&#xe102;" horiz-adv-x="488" 
d="M259 91q62 0 81 63l114 -39q-17 -66 -70 -96.5t-128 -30.5q-101 0 -162 63t-61 173q0 118 60 183.5t165 65.5q95 0 145 -56t50 -149q0 -32 -6 -60h-285q2 -54 27 -85.5t70 -31.5zM166 282h159q1 6 1 16q0 34 -19 55t-54 21q-37 0 -60 -25.5t-27 -66.5zM298 526h-122
l70 153h168zM164 -132q0 37 23 57.5t58 20.5q37 0 60.5 -20.5t23.5 -57.5q0 -36 -23.5 -56t-60.5 -20q-35 0 -58 20t-23 56z" />
    <glyph glyph-name="uni004500B40323" unicode="&#xe103;" horiz-adv-x="522" 
d="M472 118v-118h-395v589h395v-118h-259v-117h228v-113h-228v-123h259zM193 -132q0 37 23 57.5t58 20.5q37 0 60.5 -20.5t23.5 -57.5q0 -36 -23.5 -56t-60.5 -20q-35 0 -58 20t-23 56zM343 647h-122l-110 143h168z" />
    <glyph glyph-name="uni006500B40323" unicode="&#xe104;" horiz-adv-x="488" 
d="M259 91q62 0 81 63l114 -39q-17 -66 -70 -96.5t-128 -30.5q-101 0 -162 63t-61 173q0 118 60 183.5t165 65.5q95 0 145 -56t50 -149q0 -32 -6 -60h-285q2 -54 27 -85.5t70 -31.5zM166 282h159q1 6 1 16q0 34 -19 55t-54 21q-37 0 -60 -25.5t-27 -66.5zM316 526h-121
l-117 153h168zM164 -132q0 37 23 57.5t58 20.5q37 0 60.5 -20.5t23.5 -57.5q0 -36 -23.5 -56t-60.5 -20q-35 0 -58 20t-23 56z" />
    <glyph glyph-name="Gtilde" unicode="&#xe105;" horiz-adv-x="629" 
d="M318 314h254v-314h-84l-22 66q-44 -78 -162 -78q-120 0 -191.5 77t-71.5 227q0 147 76 228t212 81q87 0 148.5 -39t91.5 -110l-131 -64q-28 93 -114 93q-57 0 -100 -45t-43 -146q0 -86 35 -138.5t110 -52.5q57 0 86.5 24t29.5 63v20h-124v108zM407 649q-37 0 -74 22
q-43 25 -58 25q-16 0 -25.5 -12.5t-5.5 -36.5h-74q-28 58 0 107.5t87 49.5q31 0 68 -21q48 -27 62 -27q32 0 26 46h78q26 -61 1 -107t-85 -46z" />
    <glyph glyph-name="gtilde" unicode="&#xe106;" horiz-adv-x="502" 
d="M240 473q79 0 131 -29q22 22 35 70l105 -35q-4 -32 -28.5 -55t-55.5 -32q21 -33 21 -82q0 -77 -59.5 -118t-152.5 -41q-40 0 -56 6q-22 -14 -22 -38q0 -28 37 -28h132q77 0 120 -37.5t43 -98.5q0 -47 -22.5 -81t-62.5 -52t-84.5 -25.5t-98.5 -7.5q-216 0 -216 116
q0 84 122 93q-33 2 -54 26t-21 56q0 29 20 54.5t58 36.5q-49 19 -72.5 52t-23.5 87q0 79 55.5 121t149.5 42zM129 -69q0 -53 108 -53q69 0 98.5 13t29.5 41q0 21 -13.5 30t-43.5 9h-114q-65 0 -65 -40zM170 310q0 -32 18 -51.5t52 -19.5q71 0 71 71q0 72 -71 72
q-70 -1 -70 -72zM319 521q-36 0 -74 23q-45 25 -58 25q-16 0 -25.5 -12.5t-5.5 -36.5h-74q-28 57 0 106.5t87 49.5q33 0 68 -20q47 -28 62 -28q33 0 26 46h78q26 -61 1 -107t-85 -46z" />
    <glyph glyph-name="Gcommaturnedabove" unicode="&#xe107;" horiz-adv-x="629" 
d="M318 314h254v-314h-84l-22 66q-44 -78 -162 -78q-120 0 -191.5 77t-71.5 227q0 147 76 228t212 81q87 0 148.5 -39t91.5 -110l-131 -64q-28 93 -114 93q-57 0 -100 -45t-43 -146q0 -86 35 -138.5t110 -52.5q57 0 86.5 24t29.5 63v20h-124v108zM241 735q0 114 143 114v-45
q-34 -1 -50 -9.5t-16 -29.5q29 6 50.5 -9t21.5 -46q0 -32 -19.5 -48.5t-50.5 -16.5q-35 0 -57 25t-22 65z" />
    <glyph glyph-name="gcommaturnedabove" unicode="&#xe108;" horiz-adv-x="502" 
d="M240 473q79 0 131 -29q22 22 35 70l105 -35q-4 -32 -28.5 -55t-55.5 -32q21 -33 21 -82q0 -77 -59.5 -118t-152.5 -41q-40 0 -56 6q-22 -14 -22 -38q0 -28 37 -28h132q77 0 120 -37.5t43 -98.5q0 -47 -22.5 -81t-62.5 -52t-84.5 -25.5t-98.5 -7.5q-216 0 -216 116
q0 84 122 93q-33 2 -54 26t-21 56q0 29 20 54.5t58 36.5q-49 19 -72.5 52t-23.5 87q0 79 55.5 121t149.5 42zM129 -69q0 -53 108 -53q69 0 98.5 13t29.5 41q0 21 -13.5 30t-43.5 9h-114q-65 0 -65 -40zM170 310q0 -32 18 -51.5t52 -19.5q71 0 71 71q0 72 -71 72
q-70 -1 -70 -72zM169 611q0 114 143 114v-45q-34 -1 -50 -9.5t-16 -29.5q29 6 50.5 -9t21.5 -46q0 -32 -19.5 -48.5t-50.5 -16.5q-35 0 -57 25t-22 65z" />
    <glyph glyph-name="Hmacronbelow" unicode="&#xe109;" horiz-adv-x="652" 
d="M213 0h-136v589h136v-231h226v231h136v-589h-136v240h-226v-240zM473 -192h-294v107h294v-107z" />
    <glyph glyph-name="hmacronbelow" unicode="&#xe10a;" horiz-adv-x="535" 
d="M197 668v-294q35 99 144 99q58 0 97 -36.5t39 -109.5v-327h-134v277q0 84 -62 84q-84 0 -84 -106v-255h-134v668h134zM417 -192h-294v107h294v-107z" />
    <glyph glyph-name="Jcaron" unicode="&#xe10b;" horiz-adv-x="469" 
d="M273 589h135v-418q0 -95 -57 -139t-149 -44q-144 0 -202 113l100 90q19 -46 42 -68.5t58 -22.5q40 0 56.5 23t16.5 72v394zM381 646h-85l-135 145h125l30 -31q8 -8 13 -15.5t6 -10.5l1 -4h4q3 12 20 30l31 31h124z" />
    <glyph glyph-name="Kcedilla" unicode="&#xe10d;" horiz-adv-x="581" 
d="M569 0h-162l-159 240h-35v-240h-136v589h136v-231h36l146 231h156l-186 -285zM392 -118q0 -45 -32 -69t-83 -24q-72 0 -105 36l25 64q31 -35 65 -35q30 0 30 26q0 34 -51 40l11 98h57l-5 -54q88 -6 88 -82z" />
    <glyph glyph-name="kcedilla" unicode="&#xe10e;" horiz-adv-x="519" 
d="M335 247l175 -247h-156l-130 190h-27v-190h-134v668h134v-374h25l118 168h155zM372 -118q0 -45 -32 -69t-83 -24q-72 0 -105 36l25 64q31 -35 65 -35q30 0 30 26q0 34 -51 40l11 98h57l-5 -54q88 -6 88 -82z" />
    <glyph glyph-name="Lcedilla" unicode="&#xe10f;" horiz-adv-x="471" 
d="M367 -118q0 -45 -32 -69t-83 -24q-72 0 -105 36l25 64q31 -35 65 -35q30 0 30 26q0 34 -51 40l9 80h-148v589h136v-471h230v-118h-161l-3 -36q88 -6 88 -82z" />
    <glyph glyph-name="ocedilla" unicode="&#xe110;" horiz-adv-x="513" 
d="M365 -118q0 -45 -32 -69t-83 -24q-72 0 -105 36l25 64q31 -35 65 -35q30 0 30 26q0 34 -51 40l8 70q-88 11 -138.5 74t-50.5 168q0 116 60.5 178.5t163.5 62.5t163 -62.5t60 -178.5q0 -109 -54 -172.5t-147 -70.5l-2 -25q88 -6 88 -82zM257 366q-92 0 -92 -134
q0 -72 22.5 -106t69.5 -34q91 0 91 140q0 134 -91 134z" />
    <glyph glyph-name="Mmacron" unicode="&#xe111;" horiz-adv-x="739" 
d="M402 136h-65l-81 135q-14 22 -25 44.5t-15 34.5l-5 11h-4q6 -33 6 -100v-261h-136v589h138l111 -199q15 -26 25.5 -47.5t13.5 -30.5l3 -8h4q9 28 42 86l112 199h136v-589h-135v261l5 100h-4q-14 -41 -44 -90zM520 664h-301v108h301v-108z" />
    <glyph glyph-name="mmacron" unicode="&#xe112;" horiz-adv-x="797" 
d="M457 372q37 101 150 101q60 0 96 -35.5t36 -109.5v-328h-134v277q0 84 -61 84q-76 0 -76 -106v-255h-134v277q0 41 -13.5 62.5t-47.5 21.5q-76 0 -76 -107v-254h-134v462h114l16 -89q36 100 142 100t122 -101zM548 539h-294v108h294v-108z" />
    <glyph glyph-name="Mcedilla" unicode="&#xe113;" horiz-adv-x="739" 
d="M402 136h-65l-81 135q-14 22 -25 44.5t-15 34.5l-5 11h-4q6 -33 6 -100v-261h-136v589h138l111 -199q15 -26 25.5 -47.5t13.5 -30.5l3 -8h4q9 28 42 86l112 199h136v-589h-135v261l5 100h-4q-14 -41 -44 -90zM476 -118q0 -45 -32 -69t-83 -24q-72 0 -105 36l25 64
q31 -35 65 -35q30 0 30 26q0 34 -51 40l11 98h57l-5 -54q88 -6 88 -82z" />
    <glyph glyph-name="mcedilla" unicode="&#xe114;" horiz-adv-x="797" 
d="M510 -118q0 -45 -32 -69t-83 -24q-72 0 -105 36l25 64q31 -35 65 -35q30 0 30 26q0 34 -51 40l9 80h-34v277q0 41 -13.5 62.5t-47.5 21.5q-76 0 -76 -107v-254h-134v462h114l16 -89q36 100 142 100t122 -101q37 101 150 101q60 0 96 -35.5t36 -109.5v-328h-134v277
q0 84 -61 84q-76 0 -76 -106v-255h-43l-3 -36q88 -6 88 -82z" />
    <glyph glyph-name="Ndieresis" unicode="&#xe115;" horiz-adv-x="676" 
d="M205 589l208 -285q15 -20 27 -39.5t17 -29.5l5 -10h4q-3 50 -3 125v239h136v-589h-124l-208 280q-17 22 -31 44t-20 32l-5 11h-4q6 -48 6 -133v-234h-136v589h128zM151 723q0 36 21 55.5t53 19.5q34 0 55 -19.5t21 -55.5q0 -35 -21 -55t-55 -20q-31 0 -52.5 20t-21.5 55z
M369 723q0 36 21 55.5t53 19.5q34 0 55 -19.5t21 -55.5t-21.5 -55.5t-54.5 -19.5q-32 0 -53 20t-21 55z" />
    <glyph glyph-name="ndieresis" unicode="&#xe116;" horiz-adv-x="535" 
d="M177 462l16 -89q36 100 148 100q58 0 97 -36.5t39 -109.5v-327h-134v277q0 84 -62 84q-84 0 -84 -107v-254h-134v462h114zM84 596q0 36 21 55.5t53 19.5q34 0 55 -19.5t21 -55.5q0 -35 -21 -55t-55 -20q-31 0 -52.5 20t-21.5 55zM302 596q0 36 21 55.5t53 19.5
q34 0 55 -19.5t21 -55.5t-21.5 -55.5t-54.5 -19.5q-32 0 -53 20t-21 55z" />
    <glyph glyph-name="Nmacron" unicode="&#xe117;" horiz-adv-x="676" 
d="M205 589l208 -285q15 -20 27 -39.5t17 -29.5l5 -10h4q-3 50 -3 125v239h136v-589h-124l-208 280q-17 22 -31 44t-20 32l-5 11h-4q6 -48 6 -133v-234h-136v589h128zM488 664h-301v108h301v-108z" />
    <glyph glyph-name="nmacron" unicode="&#xe118;" horiz-adv-x="535" 
d="M177 462l16 -89q36 100 148 100q58 0 97 -36.5t39 -109.5v-327h-134v277q0 84 -62 84q-84 0 -84 -107v-254h-134v462h114zM418 539h-294v108h294v-108z" />
    <glyph glyph-name="Ncedilla" unicode="&#xe119;" horiz-adv-x="676" 
d="M205 589l208 -285q15 -20 27 -39.5t17 -29.5l5 -10h4q-3 50 -3 125v239h136v-589h-124l-208 280q-17 22 -31 44t-20 32l-5 11h-4q6 -48 6 -133v-234h-136v589h128zM444 -118q0 -45 -32 -69t-83 -24q-72 0 -105 36l25 64q31 -35 65 -35q30 0 30 26q0 34 -51 40l11 98h57
l-5 -54q88 -6 88 -82z" />
    <glyph glyph-name="ncedilla" unicode="&#xe11a;" horiz-adv-x="535" 
d="M177 462l16 -89q36 100 148 100q58 0 97 -36.5t39 -109.5v-327h-134v277q0 84 -62 84q-84 0 -84 -107v-254h-134v462h114zM377 -118q0 -45 -32 -69t-83 -24q-72 0 -105 36l25 64q31 -35 65 -35q30 0 30 26q0 34 -51 40l11 98h57l-5 -54q88 -6 88 -82z" />
    <glyph glyph-name="Ocommaturnedabove" unicode="&#xe11b;" horiz-adv-x="641" 
d="M320 -12q-132 0 -205.5 79.5t-73.5 226.5t73.5 227t205.5 80t206 -80t74 -227t-74 -226.5t-206 -79.5zM320 480q-68 0 -103 -49.5t-35 -138.5t35 -138t103 -49q69 0 104 49t35 138t-35 138.5t-104 49.5zM238 735q0 114 143 114v-45q-34 -1 -50 -9.5t-16 -29.5
q29 6 50.5 -9t21.5 -46q0 -32 -19.5 -48.5t-50.5 -16.5q-35 0 -57 25t-22 65z" />
    <glyph glyph-name="ocommaturnedabove" unicode="&#xe11c;" horiz-adv-x="513" 
d="M257 -12q-103 0 -163.5 64.5t-60.5 179.5q0 116 60.5 178.5t163.5 62.5t163 -62.5t60 -178.5q0 -115 -60.5 -179.5t-162.5 -64.5zM257 366q-92 0 -92 -134q0 -72 22.5 -106t69.5 -34q91 0 91 140q0 134 -91 134zM175 614q0 114 143 114v-45q-34 -1 -50 -9.5t-16 -29.5
q29 6 50.5 -9t21.5 -46q0 -32 -19.5 -48.5t-50.5 -16.5q-35 0 -57 25t-22 65z" />
    <glyph glyph-name="uni004F02D900AF" unicode="&#xe11d;" horiz-adv-x="641" 
d="M320 -12q-132 0 -205.5 79.5t-73.5 226.5t73.5 227t205.5 80t206 -80t74 -227t-74 -226.5t-206 -79.5zM320 480q-68 0 -103 -49.5t-35 -138.5t35 -138t103 -49q69 0 104 49t35 138t-35 138.5t-104 49.5zM471 834h-301v108h301v-108zM238 722q0 37 23 57.5t58 20.5
q37 0 60.5 -20.5t23.5 -57.5q0 -36 -23.5 -56t-60.5 -20q-35 0 -58 20t-23 56z" />
    <glyph glyph-name="Ocedilla" unicode="&#xe11f;" horiz-adv-x="641" 
d="M427 -118q0 -45 -32 -69t-83 -24q-72 0 -105 36l25 64q31 -35 65 -35q30 0 30 26q0 34 -51 40l8 70q-116 11 -179.5 89.5t-63.5 214.5q0 147 73.5 227t205.5 80t206 -80t74 -227q0 -140 -68.5 -219.5t-190.5 -85.5l-2 -25q88 -6 88 -82zM320 480q-68 0 -103 -49.5
t-35 -138.5t35 -138t103 -49q69 0 104 49t35 138t-35 138.5t-104 49.5z" />
    <glyph glyph-name="Ounderlineaccent" unicode="&#xe121;" horiz-adv-x="641" 
d="M320 -12q-132 0 -205.5 79.5t-73.5 226.5t73.5 227t205.5 80t206 -80t74 -227t-74 -226.5t-206 -79.5zM320 480q-68 0 -103 -49.5t-35 -138.5t35 -138t103 -49q69 0 104 49t35 138t-35 138.5t-104 49.5zM370 -203h-100v150h100v-150z" />
    <glyph glyph-name="ounderlineaccent" unicode="&#xe122;" horiz-adv-x="513" 
d="M257 -12q-103 0 -163.5 64.5t-60.5 179.5q0 116 60.5 178.5t163.5 62.5t163 -62.5t60 -178.5q0 -115 -60.5 -179.5t-162.5 -64.5zM257 366q-92 0 -92 -134q0 -72 22.5 -106t69.5 -34q91 0 91 140q0 134 -91 134zM307 -203h-100v150h100v-150z" />
    <glyph glyph-name="Pmacron" unicode="&#xe123;" horiz-adv-x="531" 
d="M213 475v-174h70q83 0 83 84q0 90 -83 90h-70zM213 0h-136v589h210q111 0 162.5 -49.5t51.5 -149.5q0 -94 -53 -147t-148 -53h-87v-190zM414 664h-301v108h301v-108z" />
    <glyph glyph-name="pmacron" unicode="&#xe124;" 
d="M196 253v-64q0 -54 26.5 -79.5t61.5 -25.5q45 0 75 38t30 108q0 136 -96 136q-39 0 -68 -30t-29 -83zM197 61v-264h-134v665h114l17 -89q38 100 152 100q85 0 131.5 -60.5t46.5 -170.5q0 -116 -52.5 -185t-145.5 -69q-51 0 -85 21t-44 52zM441 539h-294v108h294v-108z
" />
    <glyph glyph-name="Rdoublegrave" unicode="&#xe125;" horiz-adv-x="582" 
d="M555 0h-151q-20 16 -31 61l-22 88q-9 36 -26.5 47.5t-53.5 11.5h-58v-208h-136v589h232q214 0 214 -180q0 -66 -35 -104t-94 -44v-2q41 -7 64 -26.5t34 -59.5l30 -110q10 -39 33 -63zM213 474v-154h87q84 0 84 77t-84 77h-87zM414 647h-95l-98 143h141zM249 647h-104
l-117 143h150z" />
    <glyph glyph-name="rdoublegrave" unicode="&#xe126;" horiz-adv-x="394" 
d="M382 472l-15 -148q-23 8 -52 8q-48 0 -83 -28t-35 -93v-211h-134v462h116l16 -127q17 68 59.5 105t127.5 32zM362 526h-95l-98 153h141zM197 526h-104l-117 153h150z" />
    <glyph glyph-name="Rcedilla" unicode="&#xe127;" horiz-adv-x="582" 
d="M555 0h-151q-20 16 -31 61l-22 88q-9 36 -26.5 47.5t-53.5 11.5h-58v-208h-136v589h232q214 0 214 -180q0 -66 -35 -104t-94 -44v-2q41 -7 64 -26.5t34 -59.5l30 -110q10 -39 33 -63zM213 474v-154h87q84 0 84 77t-84 77h-87zM384 -118q0 -45 -32 -69t-83 -24
q-72 0 -105 36l25 64q31 -35 65 -35q30 0 30 26q0 34 -51 40l11 98h57l-5 -54q88 -6 88 -82z" />
    <glyph glyph-name="rcedilla" unicode="&#xe128;" horiz-adv-x="394" 
d="M245 -118q0 -45 -32 -69t-83 -24q-72 0 -105 36l25 64q31 -35 65 -35q30 0 30 26q0 34 -51 40l9 80h-40v462h116l16 -127q17 68 59.5 105t127.5 32l-15 -148q-23 8 -52 8q-48 0 -83 -28t-35 -93v-211h-37l-3 -36q88 -6 88 -82z" />
    <glyph glyph-name="Tcedilla" unicode="&#xe129;" horiz-adv-x="479" 
d="M348 -118q0 -45 -32 -69t-83 -24q-72 0 -105 36l25 64q31 -35 65 -35q30 0 30 26q0 34 -51 40l9 80h-35v471h-161v118h459v-118h-164v-471h-42l-3 -36q88 -6 88 -82z" />
    <glyph glyph-name="tcedilla" unicode="&#xe12a;" horiz-adv-x="386" 
d="M309 -118q0 -45 -32 -69t-83 -24q-72 0 -105 36l25 64q31 -35 65 -35q30 0 30 26q0 34 -51 40l8 77q-89 26 -89 140v222h-67v103h68v98l134 16v-114h137v-103h-138v-192q0 -36 13.5 -50.5t42.5 -14.5q40 0 81 29l23 -113q-59 -30 -142 -30h-6l-2 -24q88 -6 88 -82z" />
    <glyph glyph-name="Umacronbelow" unicode="&#xe12b;" horiz-adv-x="608" 
d="M412 589h135v-392q0 -111 -67 -160t-176 -49t-176 49t-67 160v392h136v-354q0 -68 23.5 -101t83.5 -33q61 0 84.5 33.5t23.5 101.5v353zM451 -192h-294v107h294v-107z" />
    <glyph glyph-name="umacronbelow" unicode="&#xe12c;" horiz-adv-x="531" 
d="M352 0l-16 86q-25 -98 -143 -98q-139 0 -139 149v325h134v-287q0 -86 63 -86q37 0 60 31t23 94v248h134v-462h-116zM408 -192h-294v107h294v-107z" />
    <glyph glyph-name="R.alt" unicode="&#xe141;" horiz-adv-x="556" 
d="M391 220l154 -220h-158l-140 207h-34v-207h-136v589h212q214 0 214 -192q0 -68 -28.5 -114t-83.5 -63zM213 475v-166h63q86 0 86 83t-85 83h-64z" />
    <glyph glyph-name="Racute.alt" unicode="&#xe142;" horiz-adv-x="556" 
d="M391 220l154 -220h-158l-140 207h-34v-207h-136v589h212q214 0 214 -192q0 -68 -28.5 -114t-83.5 -63zM213 475v-166h63q86 0 86 83t-85 83h-64zM293 647h-123l64 143h168z" />
    <glyph glyph-name="Rcaron.alt" unicode="&#xe143;" horiz-adv-x="556" 
d="M391 220l154 -220h-158l-140 207h-34v-207h-136v589h212q214 0 214 -192q0 -68 -28.5 -114t-83.5 -63zM213 475v-166h63q86 0 86 83t-85 83h-64zM304 646h-85l-135 145h125l30 -31q8 -8 13 -15.5t6 -10.5l1 -4h4q3 12 20 30l31 31h124z" />
    <glyph glyph-name="Rinvertedbreve.alt" unicode="&#xe144;" horiz-adv-x="556" 
d="M391 220l154 -220h-158l-140 207h-34v-207h-136v589h212q214 0 214 -192q0 -68 -28.5 -114t-83.5 -63zM213 475v-166h63q86 0 86 83t-85 83h-64zM262 798q76 0 113 -39t37 -109h-99q-1 28 -12 41t-39 13t-39 -13t-12 -41h-99q0 70 37 109t113 39z" />
    <glyph glyph-name="Rdoublegrave.alt" unicode="&#xe145;" horiz-adv-x="556" 
d="M391 220l154 -220h-158l-140 207h-34v-207h-136v589h212q214 0 214 -192q0 -68 -28.5 -114t-83.5 -63zM213 475v-166h63q86 0 86 83t-85 83h-64zM401 647h-95l-98 143h141zM236 647h-104l-117 143h150z" />
    <glyph glyph-name="Rcommaaccent.alt" unicode="&#xe146;" horiz-adv-x="556" 
d="M391 220l154 -220h-158l-140 207h-34v-207h-136v589h212q214 0 214 -192q0 -68 -28.5 -114t-83.5 -63zM213 475v-166h63q86 0 86 83t-85 83h-64zM374 -141q0 -114 -143 -114v45q34 1 50 9.5t16 29.5q-29 -6 -50.5 9t-21.5 46q0 32 20 48.5t50 16.5q35 0 57 -25t22 -65z
" />
    <glyph glyph-name="Rcedilla.alt" unicode="&#xe147;" horiz-adv-x="556" 
d="M391 220l154 -220h-158l-140 207h-34v-207h-136v589h212q214 0 214 -192q0 -68 -28.5 -114t-83.5 -63zM213 475v-166h63q86 0 86 83t-85 83h-64zM388 -118q0 -45 -32 -69t-83 -24q-72 0 -105 36l25 64q31 -35 65 -35q30 0 30 26q0 34 -51 40l11 98h57l-5 -54
q88 -6 88 -82z" />
    <glyph glyph-name="Rdotbelow.alt" unicode="&#xe148;" horiz-adv-x="556" 
d="M391 220l154 -220h-158l-140 207h-34v-207h-136v589h212q214 0 214 -192q0 -68 -28.5 -114t-83.5 -63zM213 475v-166h63q86 0 86 83t-85 83h-64zM200 -132q0 37 23 57.5t58 20.5q37 0 60.5 -20.5t23.5 -57.5q0 -36 -23.5 -56t-60.5 -20q-35 0 -58 20t-23 56z" />
    <glyph glyph-name="Rdotbelowmacron.alt" unicode="&#xe149;" horiz-adv-x="556" 
d="M391 220l154 -220h-158l-140 207h-34v-207h-136v589h212q214 0 214 -192q0 -68 -28.5 -114t-83.5 -63zM213 475v-166h63q86 0 86 83t-85 83h-64zM202 -132q0 37 23 57.5t58 20.5q37 0 60.5 -20.5t23.5 -57.5q0 -36 -23.5 -56t-60.5 -20q-35 0 -58 20t-23 56zM414 664
h-301v108h301v-108z" />
    <glyph glyph-name="aogonek.school" unicode="&#xe150;" 
d="M370 402l32 60h92v-462q-42 -2 -67 -21t-25 -53q0 -23 13 -36.5t35 -13.5q36 0 66 29l29 -67q-45 -49 -124 -49q-54 0 -90.5 27.5t-36.5 84.5q0 76 80 114l-13 65q-22 -92 -144 -92q-80 0 -132 61.5t-52 171.5q0 119 54 185.5t152 66.5q99 0 131 -71zM361 193v87
q0 48 -26 72t-64 24q-44 0 -74 -35.5t-30 -110.5q0 -65 27 -101t75 -36q37 0 64.5 27t27.5 73z" />
    <glyph glyph-name="a.school" unicode="&#xe151;" 
d="M361 191v87q0 48 -26 72t-64 24q-45 0 -74.5 -35.5t-29.5 -111.5q0 -65 27 -100.5t75 -35.5q37 0 64.5 26.5t27.5 73.5zM370 402l32 60h92v-462h-116l-17 80q-22 -92 -144 -92q-80 0 -132 61.5t-52 171.5q0 119 54 185.5t152 66.5q99 0 131 -71z" />
    <glyph glyph-name="agrave.school" unicode="&#xe152;" 
d="M361 191v87q0 48 -26 72t-64 24q-45 0 -74.5 -35.5t-29.5 -111.5q0 -65 27 -100.5t75 -35.5q37 0 64.5 26.5t27.5 73.5zM370 402l32 60h92v-462h-116l-17 80q-22 -92 -144 -92q-80 0 -132 61.5t-52 171.5q0 119 54 185.5t152 66.5q99 0 131 -71zM337 526h-121l-117 153
h168z" />
    <glyph glyph-name="aacute.school" unicode="&#xe153;" 
d="M361 191v87q0 48 -26 72t-64 24q-45 0 -74.5 -35.5t-29.5 -111.5q0 -65 27 -100.5t75 -35.5q37 0 64.5 26.5t27.5 73.5zM370 402l32 60h92v-462h-116l-17 80q-22 -92 -144 -92q-80 0 -132 61.5t-52 171.5q0 119 54 185.5t152 66.5q99 0 131 -71zM319 526h-122l70 153h168
z" />
    <glyph glyph-name="acircumflex.school" unicode="&#xe154;" 
d="M361 191v87q0 48 -26 72t-64 24q-45 0 -74.5 -35.5t-29.5 -111.5q0 -65 27 -100.5t75 -35.5q37 0 64.5 26.5t27.5 73.5zM370 402l32 60h92v-462h-116l-17 80q-22 -92 -144 -92q-80 0 -132 61.5t-52 171.5q0 119 54 185.5t152 66.5q99 0 131 -71zM240 683h84l135 -159
h-123l-32 34q-8 9 -13 17.5t-6 12.5l-1 3h-4q-1 -12 -20 -33l-32 -34h-123z" />
    <glyph glyph-name="adieresis.school" unicode="&#xe155;" 
d="M361 191v87q0 48 -26 72t-64 24q-45 0 -74.5 -35.5t-29.5 -111.5q0 -65 27 -100.5t75 -35.5q37 0 64.5 26.5t27.5 73.5zM370 402l32 60h92v-462h-116l-17 80q-22 -92 -144 -92q-80 0 -132 61.5t-52 171.5q0 119 54 185.5t152 66.5q99 0 131 -71zM94 596q0 36 21 55.5
t53 19.5q34 0 55 -19.5t21 -55.5q0 -35 -21 -55t-55 -20q-31 0 -52.5 20t-21.5 55zM312 596q0 36 21 55.5t53 19.5q34 0 55 -19.5t21 -55.5t-21.5 -55.5t-54.5 -19.5q-32 0 -53 20t-21 55z" />
    <glyph glyph-name="atilde.school" unicode="&#xe156;" 
d="M361 191v87q0 48 -26 72t-64 24q-45 0 -74.5 -35.5t-29.5 -111.5q0 -65 27 -100.5t75 -35.5q37 0 64.5 26.5t27.5 73.5zM370 402l32 60h92v-462h-116l-17 80q-22 -92 -144 -92q-80 0 -132 61.5t-52 171.5q0 119 54 185.5t152 66.5q99 0 131 -71zM357 521q-36 0 -74 23
q-45 25 -58 25q-16 0 -25.5 -12.5t-5.5 -36.5h-74q-28 57 0 106.5t87 49.5q33 0 68 -20q47 -28 62 -28q33 0 26 46h78q26 -61 1 -107t-85 -46z" />
    <glyph glyph-name="aring.school" unicode="&#xe157;" 
d="M361 191v87q0 48 -26 72t-64 24q-45 0 -74.5 -35.5t-29.5 -111.5q0 -65 27 -100.5t75 -35.5q37 0 64.5 26.5t27.5 73.5zM370 402l32 60h92v-462h-116l-17 80q-22 -92 -144 -92q-80 0 -132 61.5t-52 171.5q0 119 54 185.5t152 66.5q99 0 131 -71zM274 506q-54 0 -84.5 32
t-30.5 80q0 45 32 77t83 32t83 -32t32 -77q0 -48 -30.5 -80t-84.5 -32zM274 667q-23 0 -36 -14t-13 -36q0 -20 13 -34t36 -14t36 14t13 34q0 22 -13 36t-36 14z" />
    <glyph glyph-name="acaron.school" unicode="&#xe158;" 
d="M361 191v87q0 48 -26 72t-64 24q-45 0 -74.5 -35.5t-29.5 -111.5q0 -65 27 -100.5t75 -35.5q37 0 64.5 26.5t27.5 73.5zM370 402l32 60h92v-462h-116l-17 80q-22 -92 -144 -92q-80 0 -132 61.5t-52 171.5q0 119 54 185.5t152 66.5q99 0 131 -71zM318 524h-84l-135 159
h123l32 -35q8 -9 13 -17.5t6 -12.5l1 -3h4q1 12 20 33l32 35h123z" />
    <glyph glyph-name="amacron.school" unicode="&#xe159;" 
d="M361 191v87q0 48 -26 72t-64 24q-45 0 -74.5 -35.5t-29.5 -111.5q0 -65 27 -100.5t75 -35.5q37 0 64.5 26.5t27.5 73.5zM370 402l32 60h92v-462h-116l-17 80q-22 -92 -144 -92q-80 0 -132 61.5t-52 171.5q0 119 54 185.5t152 66.5q99 0 131 -71zM430 539h-294v108h294
v-108z" />
    <glyph glyph-name="abreve.school" unicode="&#xe15a;" 
d="M361 191v87q0 48 -26 72t-64 24q-45 0 -74.5 -35.5t-29.5 -111.5q0 -65 27 -100.5t75 -35.5q37 0 64.5 26.5t27.5 73.5zM370 402l32 60h92v-462h-116l-17 80q-22 -92 -144 -92q-80 0 -132 61.5t-52 171.5q0 119 54 185.5t152 66.5q99 0 131 -71zM273 520q-75 0 -112.5 44
t-37.5 114h99q1 -32 11.5 -47t39.5 -15q30 0 40 15t11 47h99q0 -70 -37.5 -114t-112.5 -44z" />
    <glyph glyph-name="ainvertedbreve.school" unicode="&#xe15b;" 
d="M361 191v87q0 48 -26 72t-64 24q-45 0 -74.5 -35.5t-29.5 -111.5q0 -65 27 -100.5t75 -35.5q37 0 64.5 26.5t27.5 73.5zM370 402l32 60h92v-462h-116l-17 80q-22 -92 -144 -92q-80 0 -132 61.5t-52 171.5q0 119 54 185.5t152 66.5q99 0 131 -71zM277 686q75 0 112.5 -44
t37.5 -114h-99q-1 32 -11 47t-40 15q-29 0 -39.5 -15t-11.5 -47h-99q0 70 37.5 114t112.5 44z" />
    <glyph glyph-name="adoublegrave.school" unicode="&#xe15c;" 
d="M361 191v87q0 48 -26 72t-64 24q-45 0 -74.5 -35.5t-29.5 -111.5q0 -65 27 -100.5t75 -35.5q37 0 64.5 26.5t27.5 73.5zM370 402l32 60h92v-462h-116l-17 80q-22 -92 -144 -92q-80 0 -132 61.5t-52 171.5q0 119 54 185.5t152 66.5q99 0 131 -71zM409 526h-95l-98 153h141
zM244 526h-104l-117 153h150z" />
    <glyph glyph-name="adotabove.school" unicode="&#xe15d;" 
d="M361 191v87q0 48 -26 72t-64 24q-45 0 -74.5 -35.5t-29.5 -111.5q0 -65 27 -100.5t75 -35.5q37 0 64.5 26.5t27.5 73.5zM370 402l32 60h92v-462h-116l-17 80q-22 -92 -144 -92q-80 0 -132 61.5t-52 171.5q0 119 54 185.5t152 66.5q99 0 131 -71zM193 595q0 37 23 57.5
t58 20.5q38 0 61 -20.5t23 -57.5q0 -36 -23 -56t-61 -20q-35 0 -58 20.5t-23 55.5z" />
    <glyph glyph-name="aringacute.school" unicode="&#xe15e;" 
d="M361 191v87q0 48 -26 72t-64 24q-45 0 -74.5 -35.5t-29.5 -111.5q0 -65 27 -100.5t75 -35.5q37 0 64.5 26.5t27.5 73.5zM370 402l32 60h92v-462h-116l-17 80q-22 -92 -144 -92q-80 0 -132 61.5t-52 171.5q0 119 54 185.5t152 66.5q99 0 131 -71zM278 500q-54 0 -84.5 32
t-30.5 80q0 45 32 77t83 32t83 -32t32 -77q0 -48 -30.5 -80t-84.5 -32zM278 661q-23 0 -36 -14t-13 -36q0 -20 13 -34t36 -14t36 14t13 34q0 22 -13 36t-36 14zM337 754h-123l64 143h168z" />
    <glyph glyph-name="adieresismacron.school" unicode="&#xe15f;" 
d="M361 191v87q0 48 -26 72t-64 24q-45 0 -74.5 -35.5t-29.5 -111.5q0 -65 27 -100.5t75 -35.5q37 0 64.5 26.5t27.5 73.5zM370 402l32 60h92v-462h-116l-17 80q-22 -92 -144 -92q-80 0 -132 61.5t-52 171.5q0 119 54 185.5t152 66.5q99 0 131 -71zM91 580q0 36 21 55.5
t53 19.5q34 0 55 -19.5t21 -55.5q0 -35 -21 -55t-55 -20q-31 0 -52.5 20t-21.5 55zM309 580q0 36 21 55.5t53 19.5q34 0 55 -19.5t21 -55.5t-21.5 -55.5t-54.5 -19.5q-32 0 -53 20t-21 55zM425 693h-294v108h294v-108z" />
    <glyph glyph-name="ytilde.school" unicode="&#xe160;" horiz-adv-x="531" 
d="M54 462h134v-275q0 -86 63 -86q37 0 60 31t23 94v236h134v-446q0 -109 -59 -168t-175 -59q-166 0 -213 117l105 65q27 -83 109 -83q51 0 75.5 27t24.5 88v93q-23 -96 -138 -96q-66 0 -104.5 36.5t-38.5 112.5v313zM339 521q-36 0 -74 23q-45 25 -58 25q-16 0 -25.5 -12.5
t-5.5 -36.5h-74q-28 57 0 106.5t87 49.5q33 0 68 -20q47 -28 62 -28q33 0 26 46h78q26 -61 1 -107t-85 -46z" />
    <glyph glyph-name="g.school" unicode="&#xe161;" 
d="M402 462h92v-438q0 -117 -68.5 -176t-179.5 -59q-174 0 -222 121l106 65q28 -86 117 -86q52 0 83.5 29.5t31.5 90.5v81q-28 -92 -146 -92q-78 0 -130.5 57t-52.5 169q0 116 54 182.5t152 66.5q100 0 131 -72zM361 206v73q0 45 -26.5 68.5t-64.5 23.5q-44 0 -73.5 -34
t-29.5 -106q0 -64 26.5 -98t72.5 -34q37 0 66 26.5t29 80.5z" />
    <glyph glyph-name="gacute.school" unicode="&#xe162;" 
d="M402 462h92v-438q0 -117 -68.5 -176t-179.5 -59q-174 0 -222 121l106 65q28 -86 117 -86q52 0 83.5 29.5t31.5 90.5v81q-28 -92 -146 -92q-78 0 -130.5 57t-52.5 169q0 116 54 182.5t152 66.5q100 0 131 -72zM361 206v73q0 45 -26.5 68.5t-64.5 23.5q-44 0 -73.5 -34
t-29.5 -106q0 -64 26.5 -98t72.5 -34q37 0 66 26.5t29 80.5zM318 526h-122l70 153h168z" />
    <glyph glyph-name="gcircumflex.school" unicode="&#xe163;" 
d="M402 462h92v-438q0 -117 -68.5 -176t-179.5 -59q-174 0 -222 121l106 65q28 -86 117 -86q52 0 83.5 29.5t31.5 90.5v81q-28 -92 -146 -92q-78 0 -130.5 57t-52.5 169q0 116 54 182.5t152 66.5q100 0 131 -72zM361 206v73q0 45 -26.5 68.5t-64.5 23.5q-44 0 -73.5 -34
t-29.5 -106q0 -64 26.5 -98t72.5 -34q37 0 66 26.5t29 80.5zM238 683h84l135 -159h-123l-32 34q-8 9 -13 17.5t-6 12.5l-1 3h-4q-1 -12 -20 -33l-32 -34h-123z" />
    <glyph glyph-name="gtilde.school" unicode="&#xe164;" 
d="M402 462h92v-438q0 -117 -68.5 -176t-179.5 -59q-174 0 -222 121l106 65q28 -86 117 -86q52 0 83.5 29.5t31.5 90.5v81q-28 -92 -146 -92q-78 0 -130.5 57t-52.5 169q0 116 54 182.5t152 66.5q100 0 131 -72zM361 206v73q0 45 -26.5 68.5t-64.5 23.5q-44 0 -73.5 -34
t-29.5 -106q0 -64 26.5 -98t72.5 -34q37 0 66 26.5t29 80.5zM365 521q-36 0 -74 23q-45 25 -58 25q-16 0 -25.5 -12.5t-5.5 -36.5h-74q-28 57 0 106.5t87 49.5q33 0 68 -20q47 -28 62 -28q33 0 26 46h78q26 -61 1 -107t-85 -46z" />
    <glyph glyph-name="gcaron.school" unicode="&#xe165;" 
d="M402 462h92v-438q0 -117 -68.5 -176t-179.5 -59q-174 0 -222 121l106 65q28 -86 117 -86q52 0 83.5 29.5t31.5 90.5v81q-28 -92 -146 -92q-78 0 -130.5 57t-52.5 169q0 116 54 182.5t152 66.5q100 0 131 -72zM361 206v73q0 45 -26.5 68.5t-64.5 23.5q-44 0 -73.5 -34
t-29.5 -106q0 -64 26.5 -98t72.5 -34q37 0 66 26.5t29 80.5zM322 524h-84l-135 159h123l32 -35q8 -9 13 -17.5t6 -12.5l1 -3h4q1 12 20 33l32 35h123z" />
    <glyph glyph-name="gbreve.school" unicode="&#xe166;" 
d="M402 462h92v-438q0 -117 -68.5 -176t-179.5 -59q-174 0 -222 121l106 65q28 -86 117 -86q52 0 83.5 29.5t31.5 90.5v81q-28 -92 -146 -92q-78 0 -130.5 57t-52.5 169q0 116 54 182.5t152 66.5q100 0 131 -72zM361 206v73q0 45 -26.5 68.5t-64.5 23.5q-44 0 -73.5 -34
t-29.5 -106q0 -64 26.5 -98t72.5 -34q37 0 66 26.5t29 80.5zM277 520q-75 0 -112.5 44t-37.5 114h99q1 -32 11.5 -47t39.5 -15q30 0 40 15t11 47h99q0 -70 -37.5 -114t-112.5 -44z" />
    <glyph glyph-name="gdotaccent.school" unicode="&#xe167;" 
d="M402 462h92v-438q0 -117 -68.5 -176t-179.5 -59q-174 0 -222 121l106 65q28 -86 117 -86q52 0 83.5 29.5t31.5 90.5v81q-28 -92 -146 -92q-78 0 -130.5 57t-52.5 169q0 116 54 182.5t152 66.5q100 0 131 -72zM361 206v73q0 45 -26.5 68.5t-64.5 23.5q-44 0 -73.5 -34
t-29.5 -106q0 -64 26.5 -98t72.5 -34q37 0 66 26.5t29 80.5zM198 594q0 37 23 57.5t58 20.5q38 0 61 -20.5t23 -57.5q0 -36 -23 -56t-61 -20q-35 0 -58 20.5t-23 55.5z" />
    <glyph glyph-name="gcommaaccent.school" unicode="&#xe168;" 
d="M402 462h92v-438q0 -117 -68.5 -176t-179.5 -59q-174 0 -222 121l106 65q28 -86 117 -86q52 0 83.5 29.5t31.5 90.5v81q-28 -92 -146 -92q-78 0 -130.5 57t-52.5 169q0 116 54 182.5t152 66.5q100 0 131 -72zM361 206v73q0 45 -26.5 68.5t-64.5 23.5q-44 0 -73.5 -34
t-29.5 -106q0 -64 26.5 -98t72.5 -34q37 0 66 26.5t29 80.5zM218 612q0 114 143 114v-45q-34 -1 -50 -9.5t-16 -29.5q29 6 50.5 -9t21.5 -46q0 -32 -19.5 -48.5t-50.5 -16.5q-35 0 -57 25t-22 65z" />
    <glyph glyph-name="gcommaturnedabove.school" unicode="&#xe169;" 
d="M402 462h92v-438q0 -117 -68.5 -176t-179.5 -59q-174 0 -222 121l106 65q28 -86 117 -86q52 0 83.5 29.5t31.5 90.5v81q-28 -92 -146 -92q-78 0 -130.5 57t-52.5 169q0 116 54 182.5t152 66.5q100 0 131 -72zM361 206v73q0 45 -26.5 68.5t-64.5 23.5q-44 0 -73.5 -34
t-29.5 -106q0 -64 26.5 -98t72.5 -34q37 0 66 26.5t29 80.5zM218 612q0 114 143 114v-45q-34 -1 -50 -9.5t-16 -29.5q29 6 50.5 -9t21.5 -46q0 -32 -19.5 -48.5t-50.5 -16.5q-35 0 -57 25t-22 65z" />
    <glyph glyph-name="gstroke.school" unicode="&#xe16a;" 
d="M233 -68v35h125q4 22 4 37v86q-38 -92 -148 -92q-77 0 -129 57t-52 169q0 116 54 182.5t152 66.5q100 0 131 -72l32 61h92v-438q0 -30 -6 -57h75v-35h-84q-25 -70 -87 -106.5t-146 -36.5q-174 0 -222 121l106 59q28 -85 117 -85q65 0 97 48h-111zM361 205v75q0 48 -29 72
t-65 24q-40 0 -70 -35.5t-30 -105.5q0 -132 99 -132q36 0 65.5 26t29.5 76z" />
    <glyph glyph-name="y.school" unicode="&#xe16b;" horiz-adv-x="531" 
d="M54 462h134v-275q0 -86 63 -86q37 0 60 31t23 94v236h134v-446q0 -109 -59 -168t-175 -59q-166 0 -213 117l105 65q27 -83 109 -83q51 0 75.5 27t24.5 88v93q-23 -96 -138 -96q-66 0 -104.5 36.5t-38.5 112.5v313z" />
    <glyph glyph-name="ygrave.school" unicode="&#xe16c;" horiz-adv-x="531" 
d="M54 462h134v-275q0 -86 63 -86q37 0 60 31t23 94v236h134v-446q0 -109 -59 -168t-175 -59q-166 0 -213 117l105 65q27 -83 109 -83q51 0 75.5 27t24.5 88v93q-23 -96 -138 -96q-66 0 -104.5 36.5t-38.5 112.5v313zM326 526h-121l-117 153h168z" />
    <glyph glyph-name="yacute.school" unicode="&#xe16d;" horiz-adv-x="531" 
d="M54 462h134v-275q0 -86 63 -86q37 0 60 31t23 94v236h134v-446q0 -109 -59 -168t-175 -59q-166 0 -213 117l105 65q27 -83 109 -83q51 0 75.5 27t24.5 88v93q-23 -96 -138 -96q-66 0 -104.5 36.5t-38.5 112.5v313zM307 526h-122l70 153h168z" />
    <glyph glyph-name="ycircumflex.school" unicode="&#xe16e;" horiz-adv-x="531" 
d="M54 462h134v-275q0 -86 63 -86q37 0 60 31t23 94v236h134v-446q0 -109 -59 -168t-175 -59q-166 0 -213 117l105 65q27 -83 109 -83q51 0 75.5 27t24.5 88v93q-23 -96 -138 -96q-66 0 -104.5 36.5t-38.5 112.5v313zM217 683h84l135 -159h-123l-32 34q-8 9 -13 17.5
t-6 12.5l-1 3h-4q-1 -12 -20 -33l-32 -34h-123z" />
    <glyph glyph-name="ydieresis.school" unicode="&#xe16f;" horiz-adv-x="531" 
d="M54 462h134v-275q0 -86 63 -86q37 0 60 31t23 94v236h134v-446q0 -109 -59 -168t-175 -59q-166 0 -213 117l105 65q27 -83 109 -83q51 0 75.5 27t24.5 88v93q-23 -96 -138 -96q-66 0 -104.5 36.5t-38.5 112.5v313zM73 596q0 36 21 55.5t53 19.5q34 0 55 -19.5t21 -55.5
q0 -35 -21 -55t-55 -20q-31 0 -52.5 20t-21.5 55zM291 596q0 36 21 55.5t53 19.5q34 0 55 -19.5t21 -55.5t-21.5 -55.5t-54.5 -19.5q-32 0 -53 20t-21 55z" />
    <glyph glyph-name="ymacron.school" unicode="&#xe171;" horiz-adv-x="531" 
d="M54 462h134v-275q0 -86 63 -86q37 0 60 31t23 94v236h134v-446q0 -109 -59 -168t-175 -59q-166 0 -213 117l105 65q27 -83 109 -83q51 0 75.5 27t24.5 88v93q-23 -96 -138 -96q-66 0 -104.5 36.5t-38.5 112.5v313zM409 539h-294v108h294v-108z" />
    <glyph glyph-name="cordinal" unicode="&#xe181;" horiz-adv-x="356" 
d="M241 401l89 -32q-9 -45 -45.5 -67.5t-89.5 -22.5q-71 0 -112.5 41.5t-41.5 116.5q0 77 42 120.5t113 43.5q55 0 90.5 -27.5t38.5 -73.5l-83 -27q-8 44 -43 44q-51 0 -51 -76q0 -36 13.5 -57.5t38.5 -21.5q33 0 41 39z" />
    <glyph glyph-name="ordfeminine.school" unicode="&#xe182;" horiz-adv-x="409" 
d="M258 415v55q0 30 -17.5 45t-40.5 15q-26 0 -44.5 -22t-18.5 -71q0 -40 17 -63t46 -23q22 0 40 16.5t18 47.5zM257 553l18 40h88v-306h-86l-13 52q-27 -60 -106 -60q-53 0 -90 40.5t-37 112.5q0 79 37.5 124t106.5 45q30 0 53.5 -14t28.5 -34z" />
    <glyph glyph-name="gsuperior.school" unicode="&#xe183;" horiz-adv-x="429" 
d="M268 428v49q0 27 -18 41t-40 14q-26 0 -44.5 -20.5t-18.5 -64.5q0 -36 17 -56t46 -20q22 0 40 14.5t18 42.5zM373 593v-266q0 -157 -186 -157q-109 0 -150 58l60 63q32 -45 91 -45q39 0 59.5 14t20.5 50v40q-24 -50 -100 -50q-53 0 -90 36.5t-37 102.5q0 73 38 117.5
t106 44.5q30 0 53.5 -14t29.5 -34l16 40h89z" />
    </font>
</defs>
</svg>
